Рио: Радужные врата / Rio: Rainbow Gate! (Като Такао) [TV+Special] [13+1 из 13+1] [без хардсаба] [RUS(ext), JAP+SUB] [2011 г., комедия, этти, BDRip] [720p]

Ответить на тему
 

MeiDoCorpse ®

Стаж: 4 года 7 месяцев

Сообщений: 222

Симпатии: 14

- Год выпуска: 2011
Страна: Япония
Жанр: комедия, этти
Тип: ТВ
Продолжительность: 13 эп. + спэшл по 25 мин.-Режиссёр: Като Такао
Сценарий: Сэкидзима Маёри
Студия: Xebec-Описание:
Рио Роллинз – молодая, но уже знаменитая крупье, известная под прозвищем «Богиня Победы». Работая на тропическом курорте в казино отеля Ховарда, Рио стремится достичь истинного мастерства и приблизиться к уровню своей матери, считавшейся первой в профессии. Даром девушки является «проникновение» в суть любой азартной игры, а побочным его эффектом – удача, которой она щедро делится с окружающими. Люди в мире азарта встречаются разные, но Рио всегда играет честно и старается доказать, что игра должна открывать в человеке лучшие, а не худшие стороны.
Мечта главной героини - достичь звания «лучший дилер казино», а для этого нужно собрать чертову дюжину легендарных Врат – редких карт, ради обладания которыми готовы рискнуть величайшие игроки мира. И, разумеется, на пути к мечте Рио поддержат коллеги и подруги – голливудская актриса, соперница-крупье, официантки-зайчики, фокусница, внучка заезжего миллиардера и даже веселая девушка-андроид. Эх, что наша жизнь – игра!
© Hollow, World Art-Информационные ссылки: AniDB || World Art || MAL-Качество: BDRip
Контейнер: MKV
Тип видео: Без хардсаба
Наличие линковки: Нет-
    Видео: x264 (Hi10p), 1280x720, ~3500 Kbps, 23.976 fps
    Энкод: Winter
    Аудио: Japanese, Vorbis, 48000Hz, ~256 Kbps, 2ch, в составе контейнера
    Оригинальная дорожка
    Аудио: Russian, AAC/AC3, 48000Hz, 192 Kbps, 2ch, внешними файлами
    Озвучка: многоголосая от SHIZA project
    Субтитры: Russian, ASS, внешними файлами
    Перевод: Fratelli & Dreamers Team
-

Список эпизодов

01. Goddess of Victory
02. Gate Holder
03. Misery
04. Sisters
05. Sky Resort
06. Roll Rule
07. Antlion
08. Ace
09. Joker
10. Reverse
11. Number 10
12. Speculation
13. Rainbow Gate
Спэшл. Let`s Happy / Day Dream

Скриншоты

Подробные тех. данные

General
Unique ID : 244004014952425278096310757534967745515 (0xB79176C1CE9143F5BCC463C9F3474BEB)
Complete name : D:\Anime\Rio - Rainbow Gate! [BD] [720p]\[Winter] Rio - Rainbow Gate! 01 [BDrip 1280x720 x264 Vorbis].mkv
Format : Matroska
Format version : Version 2
File size : 734 MiB
Duration : 23mn 40s
Overall bit rate mode : Variable
Overall bit rate : 4 332 Kbps
Encoded date : UTC 2013-07-30 14:05:01
Writing application : mkvmerge v2.9.8 ('C'est le bon') built on Aug 13 2009 12:49:06
Writing library : libebml v0.7.7 + libmatroska v0.8.1
Video
ID : 1
Format : AVC
Format/Info : Advanced Video Codec
Format profile : High [email protected]
Format settings, CABAC : Yes
Format settings, ReFrames : 9 frames
Codec ID : V_MPEG4/ISO/AVC
Duration : 23mn 40s
Bit rate : 3 990 Kbps
Width : 1 280 pixels
Height : 720 pixels
Display aspect ratio : 16:9
Frame rate mode : Constant
Frame rate : 23.976 fps
Color space : YUV
Chroma subsampling : 4:2:0
Bit depth : 10 bits
Scan type : Progressive
Bits/(Pixel*Frame) : 0.181
Stream size : 676 MiB (92%)
Writing library : x264 core 125 r2200 999b753
Encoding settings : cabac=1 / ref=9 / deblock=1:-2:-2 / analyse=0x3:0x133 / me=umh / subme=9 / psy=1 / psy_rd=0.90:0.00 / mixed_ref=1 / me_range=24 / chroma_me=1 / trellis=2 / 8x8dct=1 / cqm=0 / deadzone=21,11 / fast_pskip=1 / chroma_qp_offset=-2 / threads=6 / lookahead_threads=1 / sliced_threads=0 / nr=0 / decimate=0 / interlaced=0 / bluray_compat=0 / constrained_intra=0 / bframes=8 / b_pyramid=2 / b_adapt=2 / b_bias=0 / direct=1 / weightb=1 / open_gop=0 / weightp=2 / keyint=250 / keyint_min=23 / scenecut=40 / intra_refresh=0 / rc=crf / mbtree=0 / crf=15.8 / qcomp=0.70 / qpmin=9 / qpmax=40 / qpstep=4 / ip_ratio=1.40 / pb_ratio=1.30 / aq=1:0.90
Default : No
Forced : No
Audio
ID : 2
Format : Vorbis
Format settings, Floor : 1
Codec ID : A_VORBIS
Duration : 23mn 40s
Bit rate mode : Variable
Bit rate : 256 Kbps
Channel count : 2 channels
Sampling rate : 48.0 KHz
Compression mode : Lossy
Stream size : 43.4 MiB (6%)
Writing library : libVorbis (Schaufenugget) (20101101 (Schaufenugget))
Language : Japanese
Default : Yes
Forced : No


Последний раз редактировалось: MeiDoCorpse (2013-10-08 16:19), всего редактировалось 2 раз(а)

Создавать темы 05-Окт-2013 14:30

[Профиль]  [ЛС] 

KiLLeT

Стаж: 5 лет 9 месяцев

Сообщений: 102

Как оно? Окок?

Создавать темы 05-Окт-2013 14:54

[Профиль]  [ЛС] 

MeiDoCorpse ®

Стаж: 4 года 7 месяцев

Сообщений: 222

Симпатии: 14

KiLLeT, без понятия, не смотрел.

Создавать темы 05-Окт-2013 15:10

[Профиль]  [ЛС] 

SNIL

Стаж: 5 лет 11 месяцев

Сообщений: 2624

Симпатии: 341

KiLLeT, редкостьная ересь! просто тихий ужас!

Создавать темы 05-Окт-2013 15:20

[Профиль]  [ЛС] 

DuRango

Стаж: 4 года 9 месяцев

Сообщений: 70

Симпатии: 3

Блин я думал 2 часть мультика РИО...

Создавать темы 05-Окт-2013 15:21

[Профиль]  [ЛС] 

SNIL

Стаж: 5 лет 11 месяцев

Сообщений: 2624

Симпатии: 341

DuRango, )) бывает!

Создавать темы 05-Окт-2013 15:22

[Профиль]  [ЛС] 
Показать сообщения:    
Ответить на тему

Текущее время: 15-Дек 17:20

Часовой пояс: UTC + 5



Вы не можете начинать темы
Вы не можете отвечать на сообщения
Вы не можете редактировать свои сообщения
Вы не можете удалять свои сообщения
Вы не можете голосовать в опросах
Вы не можете прикреплять файлы к сообщениям
Вы не можете скачивать файлы