Война миров Z (ру-англ) / World War Z (Ru - Eng) (Марк Форстер / Marc Forster) [2013 г., ПостАпакалиптический, BDRip]

Ответить на тему
 

Kutvuker ®

Стаж: 6 лет 2 месяца

Сообщений: 13

Война миров Z (ру-англ) / World War Z (Ru - Eng)
Год выпуска: 2013
Страна: США
Жанр: ПостАпакалиптический
Продолжительность: 02:03:03
Перевод: Профессиональный (полное дублирование)
Режиссер: Марк Форстер / Marc Forster
В ролях: Брэд Питт, Мирей Инос, Джеймс Бэдж Дэйл, Мэттью Фокс, Даниэлла Кертеш, Луди Бокен, Фана Мокоэна, Дэвид Морc, Элайес Габел, Питер Капальди.
Описание: Описание: Джерри Лейн — бывший сотрудник ООН, не раз рисковавший жизнью ради страны. Для него всегда семья стояла на первом месте, и после увольнения он все свое время проводит с любимой женой и двумя дочерьми. Однажды на город обрушился странный вирус, превращающий жителей в кровожадных зомби. Чтобы спасти свою семью, Джерри решает бежать из города, но сделать это оказывается совсем не просто. Знания и навыки, полученные им за время службы, помогают им пробраться через инфицированных. Однако, как оказывается позднее, не только их город подвергся заражению, а и весь мир. Укрыв семью в безопасном месте, Джерри возвращается на службу, чтобы выяснить причины заражения и остановить массовую эпидемию...
b]Доп. информация: Format : Matroska
Format version : Version 2
File size : 5.84 GiB
Duration : 2h 3mn
Overall bit rate : 6 791 Kbps
Movie name : Jubowo @ WiKi
Encoded date : UTC 2013-09-08 05:59:24
Writing application : mkvmerge v5.7.0 ('The Whirlwind') built on Jul 8 2012 20:08:51
Writing library : libebml v1.2.3 + libmatroska v1.3.0
Video
ID : 1
Format : AVC
Format/Info : Advanced Video Codec
Format profile : [email protected]
Format settings, CABAC : Yes
Format settings, ReFrames : 12 frames
Muxing mode : Header stripping
Codec ID : V_MPEG4/ISO/AVC
Duration : 2h 3mn
Bit rate : 4 836 Kbps
Width : 1 280 pixels
Height : 536 pixels
Display aspect ratio : 2.40:1
Frame rate : 23.976 fps
Color space : YUV
Chroma subsampling : 4:2:0
Bit depth : 8 bits
Scan type : Progressive
Bits/(Pixel*Frame) : 0.294
Stream size : 4.04 GiB (69%)
Writing library : x264 core 129 r2245+704+36 8e61944 tMod+MixAQ [[email protected]:2:0 X86_64]
Encoding settings : cabac=1 / ref=12 / deblock=1:-3:-3 / analyse=0x3:0x133 / me=umh / subme=11 / psy=1 / fade_compensate=0.00 / psy_rd=1.05:0.05 / mixed_ref=1 / me_range=32 / chroma_me=1 / trellis=2 / 8x8dct=1 / cqm=0 / deadzone=21,11 / fast_pskip=0 / chroma_qp_offset=-3 / threads=18 / lookahead_threads=3 / sliced_threads=0 / nr=0 / decimate=1 / interlaced=0 / bluray_compat=0 / constrained_intra=0 / fgo=0 / bframes=8 / b_pyramid=2 / b_adapt=2 / b_bias=0 / direct=3 / weightb=1 / open_gop=0 / weightp=2 / keyint=250 / keyint_min=23 / scenecut=40 / intra_refresh=0 / rc_lookahead=50 / rc=2pass / mbtree=1 / bitrate=4836 / ratetol=1.0 / qcomp=0.70 / qpmin=0 / qpmax=69 / qpstep=4 / cplxblur=20.0 / qblur=0.5 / ip_ratio=1.40 / aq=3 / aq-strength=0.90 / aq-sensitivity=10.00 / aq-ifactor=1.00 / aq-pfactor=1.00 / aq-bfactor=1.00 / aq2=0
Language : English
Default : Yes
Forced : No
Audio #1
ID : 2
Format : AC-3
Format/Info : Audio Coding 3
Mode extension : CM (complete main)
Format settings, Endianness : Big
Muxing mode : Header stripping
Codec ID : A_AC3
Duration : 2h 3mn
Bit rate mode : Constant
Bit rate : 448 Kbps
Channel(s) : 6 channels
Channel positions : Front: L C R, Side: L R, LFE
Sampling rate : 48.0 KHz
Bit depth : 16 bits
Compression mode : Lossy
Stream size : 394 MiB (7%)
Default : Yes
Forced : No
Audio #2
ID : 3
Format : DTS
Format/Info : Digital Theater Systems
Muxing mode : Header stripping
Codec ID : A_DTS
Duration : 2h 3mn
Bit rate mode : Constant
Bit rate : 1 510 Kbps
Channel(s) : 6 channels
Channel positions : Front: L C R, Side: L R, LFE
Sampling rate : 48.0 KHz
Bit depth : 24 bits
Compression mode : Lossy
Stream size : 1.30 GiB (22%)
Language : English
Default : No
Forced : No
Качество: BDRip
Формат: MKV
Видео кодек: Другой MPEG4
Аудио кодек: AC3
Видео: Video: MPEG4 Video (H264) 1280x536 23.976fps [Video]
Аудио: Audio: Dolby AC3 48000Hz 6ch [Audio]

Скриншоты



Создавать темы 06-Окт-2013 14:00

[Профиль]  [ЛС] 

тролль

Стаж: 4 года 3 месяца

Сообщений: 49

Симпатии: 2

равзе риповшика не учили вырезать черные полосы

Создавать темы 06-Окт-2013 14:01

[Профиль]  [ЛС] 

Kutvuker ®

Стаж: 6 лет 2 месяца

Сообщений: 13

да ладно, главное все понятно. Сам фильм без "каше"

Создавать темы 06-Окт-2013 14:12

[Профиль]  [ЛС] 

Старый Дядька

Стаж: 5 лет 1 месяц

Сообщений: 566

Симпатии: 400

Вообще то повтор, до байта.
Война миров Z / World War Z (Марк Форстер) [2013 г., фантастика, боевик, триллер, драма, BDRip]

Создавать темы 06-Окт-2013 14:46

[Профиль]  [ЛС] 

Kutvuker ®

Стаж: 6 лет 2 месяца

Сообщений: 13

ТОчняк, прошу прощения!
скачивал с внешки, думал тут нет. а поиском не воспользовался.
убираю.... встаю на раздачу к выше изложенному.

Создавать темы 06-Окт-2013 15:06

[Профиль]  [ЛС] 
Показать сообщения:    
Ответить на тему

Текущее время: 18-Окт 01:47

Часовой пояс: UTC + 5



Вы не можете начинать темы
Вы не можете отвечать на сообщения
Вы не можете редактировать свои сообщения
Вы не можете удалять свои сообщения
Вы не можете голосовать в опросах
Вы не можете прикреплять файлы к сообщениям
Вы не можете скачивать файлы