Мой будущий тесть – аферист / Lionhead (Tommy Rennier) [2013 г., драма, комедия, криминал, ..., WEBDLRip]

Ответить на тему
 

igor1968 ®

Стаж: 5 лет 9 месяцев

Сообщений: 366

Симпатии: 197

Мой будущий тесть – аферист / Lionhead «A scam worth its weight in goldfish.» Год выпуска: 2013
Страна:
Жанр: драма, комедия, криминал, ...
Продолжительность: 01:36:00.520
Перевод: Профессиональный (многоголосый, закадровый)
Режиссер: Tommy Rennier
В ролях: Трэвор Лиссауер, Брайан Перри, Майкл Мэдсен, Джилл Креншоу, Дэниэл Робак, Дирдри Лавджой, Кэролайн Морахэн, Рэй Уайз, Ричард Рили, Дуан Уайтакер ...
Фрэнк, молодой человек, отчаянно хочет жениться на своей подруге, Дарлин, против желания ее отца. Когда Фрэнк наследует большую сумму денег, он решает купить кольцо и сделать предложение. К сожалению, он покупает кольцо вместе с Тедом, мошенником — авантюристом. Родители невесты, быстро определяют подделку и грозятся разорвать помолвку. Фрэнку приходится находить различные ухищрения, чтобы свадьба состоялась- -Премьера
9 июля 2013-Релиз на DVD
29 августа 2013, «Флагман-Трейд», ...-Качество: WEBDLRip
Формат: AVI
Видео кодек: XviD
Аудио кодек: AC3
Видео: 720x304 (2.37:1), 25 fps, XviD build 50 ~1837 kbps avg, 0.34 bit/pixel
Аудио: 48 kHz, AC3 Dolby Digital, 2/0 (L,R) ch, ~192.00 kbps avg-

MediaInfo

General
Complete name : Moj.bydyshij.testj.aferist.2013.P.WEBDLRip.1400MB.avi
Format : AVI
Format/Info : Audio Video Interleave
File size : 1.37 GiB
Duration : 1h 36mn
Overall bit rate : 2 039 Kbps
Writing application : VirtualDubMod 1.5.10.3 | www.virtualdub-fr.org || (build 2550/release)
Writing library : VirtualDubMod build 2550/release
Video
ID : 0
Format : MPEG-4 Visual
Format profile : Advanced [email protected]
Format settings, BVOP : 2
Format settings, QPel : No
Format settings, GMC : No warppoints
Format settings, Matrix : Default (MPEG)
Codec ID : XVID
Codec ID/Hint : XviD
Duration : 1h 36mn
Bit rate : 1 838 Kbps
Width : 720 pixels
Height : 304 pixels
Display aspect ratio : 2.35:1
Frame rate : 25.000 fps
Color space : YUV
Chroma subsampling : 4:2:0
Bit depth : 8 bits
Scan type : Progressive
Compression mode : Lossy
Bits/(Pixel*Frame) : 0.336
Stream size : 1.23 GiB (90%)
Writing library : XviD 1.2.1 (UTC 2008-12-04)
Audio
ID : 1
Format : AC-3
Format/Info : Audio Coding 3
Mode extension : CM (complete main)
Format settings, Endianness : Big
Codec ID : 2000
Duration : 1h 36mn
Bit rate mode : Constant
Bit rate : 192 Kbps
Channel(s) : 2 channels
Channel positions : Front: L R
Sampling rate : 48.0 KHz
Bit depth : 16 bits
Compression mode : Lossy
Stream size : 132 MiB (9%)
Alignment : Split accross interleaves
Interleave, duration : 40 ms (1.00 video frame)
Interleave, preload duration : 500 ms
-

Скриншоты

- - -

Создавать темы 07-Окт-2013 13:24

[Профиль]  [ЛС] 

victor0778

Стаж: 6 лет 10 месяцев

Сообщений: 1670

Симпатии: 142

Lionhead - Мой будущий тесть – аферист. Надо же так умудрится перевести.

Создавать темы 07-Окт-2013 14:21

[Профиль]  [ЛС] 

kavadham3891

Стаж: 6 лет 8 месяцев

Сообщений: 1

Афера на вес золотых рыбок.

Создавать темы 07-Окт-2013 14:41

[Профиль]  [ЛС] 
Показать сообщения:    
Ответить на тему

Текущее время: 18-Дек 17:50

Часовой пояс: UTC + 5



Вы не можете начинать темы
Вы не можете отвечать на сообщения
Вы не можете редактировать свои сообщения
Вы не можете удалять свои сообщения
Вы не можете голосовать в опросах
Вы не можете прикреплять файлы к сообщениям
Вы не можете скачивать файлы