Драйв / Drive (Николас Виндинг Рёфн) [2011, боевик, триллер, драма, криминал, BDRip 720p]

Ответить на тему
 

Djoni111095 ®

Стаж: 4 года 9 месяцев

Сообщений: 57

Симпатии: 11

-- --Драйв/Drive«Некоторые герои Настоящие»-- Год выпуска: 2011
Страна: США
Жанр: боевик, триллер, драма, криминал
Продолжительность: 01:40:48
Перевод: Профессиональный (полное дублирование)--Режиссер: Николас Виндинг Рефн
Сценарий: Хуссейн Амини, Джеймс Саллис
Продюсер: Мишель Литвак, Джон Палермо, Марк Э. Платт, ...
Оператор: Ньютон Томас Сигел
Композитор: Клифф Мартинес
Художник: Бет Микл, Кристофер Тандон, Эрин Бенач, ...
Монтаж: Мэттью Ньюман--В ролях: Райан Гослинг, Кэри Маллиган, Брайан Крэнстон, Альберт Брукс, Оскар Айзек, Кристина Хендрикс, Рон Перлман, Каден Леос, Джефф Вульф, Джеймс Бибери и др.--Описание: Великолепный гонщик — при свете дня он выполняет каскадерские трюки на съёмочных площадках Голливуда, а по ночам ведет рискованную игру. Но один опасный контракт — и за его жизнь назначена награда. Теперь, чтобы остаться в живых и спасти свою очаровательную соседку, он должен делать то, что умеет лучше всего — виртуозно уходить от погони…--Доп. информация:
бюджет: $15 000 000
сборы в США: $35 060 689
сборы в мире: + $41 114 477 = $76 175 166
сборы в России: $2 061 088
 --Качество: BDRip 720p
Формат: MKV
Видео кодек: H.264
Аудио кодек: DTS
Видео: 1280x544 (2.35:1), x264, ~4697 kbps
Аудио #1: 48 kHz, DTS, 3/2 (L,C,R,l,r) + LFE ch, ~1536.00 kbps avg Russian
Аудио #2: 48 kHz, DTS, 3/2 (L,C,R,l,r) + LFE ch, ~1536.00 kbps avg English
Cубтитры: Нет-Трейлер-

MI

General
Unique ID : 228438354886186449051682439059126655882 (0xABDBA076C371A128ABAFD3459DA49B8A)
Complete name : D:\Drajv.2011.x264.BDRip.720p.mkv
Format : Matroska
Format version : Version 2
File size : 5.43 GiB
Duration : 1h 40mn
Overall bit rate : 7 715 Kbps
Encoded date : UTC 2011-12-09 09:53:28
Writing application : mkvmerge v3.4.0 ('Rapunzel') built on May 15 2010 09:38:20
Writing library : libebml v0.8.0 + libmatroska v0.9.0
Video
ID : 1
Format : AVC
Format/Info : Advanced Video Codec
Format profile : [email protected]
Format settings, CABAC : Yes
Format settings, ReFrames : 4 frames
Codec ID : V_MPEG4/ISO/AVC
Duration : 1h 40mn
Bit rate : 4 694 Kbps
Width : 1 280 pixels
Height : 544 pixels
Display aspect ratio : 2.35:1
Frame rate : 23.976 fps
Color space : YUV
Chroma subsampling : 4:2:0
Bit depth : 8 bits
Scan type : Progressive
Bits/(Pixel*Frame) : 0.281
Stream size : 3.20 GiB (59%)
Writing library : x264 core 119 r2106 07efeb4
Encoding settings : cabac=1 / ref=3 / deblock=1:0:0 / analyse=0x3:0x133 / me=hex / subme=5 / psy=1 / psy_rd=1.00:0.00 / mixed_ref=0 / me_range=16 / chroma_me=1 / trellis=1 / 8x8dct=1 / cqm=0 / deadzone=21,11 / fast_pskip=1 / chroma_qp_offset=0 / threads=12 / sliced_threads=0 / nr=0 / decimate=1 / interlaced=0 / bluray_compat=0 / constrained_intra=0 / bframes=16 / b_pyramid=2 / b_adapt=1 / b_bias=0 / direct=3 / weightb=0 / open_gop=0 / weightp=2 / keyint=250 / keyint_min=23 / scenecut=40 / intra_refresh=0 / rc_lookahead=40 / rc=2pass / mbtree=1 / bitrate=4694 / ratetol=1.0 / qcomp=0.60 / qpmin=0 / qpmax=69 / qpstep=4 / cplxblur=20.0 / qblur=0.5 / ip_ratio=1.40 / aq=1:1.00
Default : No
Forced : No
Audio #1
ID : 2
Format : DTS
Format/Info : Digital Theater Systems
Codec ID : A_DTS
Duration : 1h 40mn
Bit rate mode : Constant
Bit rate : 1 510 Kbps
Channel(s) : 6 channels
Channel positions : Front: L C R, Side: L R, LFE
Sampling rate : 48.0 KHz
Bit depth : 16 bits
Compression mode : Lossy
Delay relative to video : 11ms
Stream size : 1.06 GiB (20%)
Title : Russian @ DTS 5.1 @ 1510 kbps
Language : Russian
Default : Yes
Forced : No
Audio #2
ID : 3
Format : DTS
Format/Info : Digital Theater Systems
Codec ID : A_DTS
Duration : 1h 40mn
Bit rate mode : Constant
Bit rate : 1 510 Kbps
Channel(s) : 6 channels
Channel positions : Front: L C R, Side: L R, LFE
Sampling rate : 48.0 KHz
Bit depth : 16 bits
Compression mode : Lossy
Stream size : 1.06 GiB (20%)
Title : English @ DTS 5.1 @ 1510 kbps
Language : English
Default : No
Forced : No

Награды


Оскар, 2012 год
Номинации (1):
Лучший монтаж звука-
Золотой глобус, 2012 год
Номинации (1):
Лучшая мужская роль второго плана (Альберт Брукс)-
Премия канала «MTV», 2012 год
Номинации (3):
Лучшая мужская роль (Райан Гослинг)
Лучшая песня — «A Real Hero»
Лучшая душераздирающая сцена-
Британская академия, 2012 год
Номинации (4):
Лучший фильм
Лучшая женская роль второго плана (Кэри Маллиган)
Лучший режиссер (Николас Виндинг Рефн)
Лучший монтаж-
Сезар, 2012 год
Номинации (1):
Лучший фильм на иностранном языке-
Каннский кинофестиваль, 2011 год
Победитель (1):
Лучший режиссер (Николас Виндинг Рефн)
Номинации (1):
Золотая пальмовая ветвь

Знаете ли вы, что...

Фильм снят по мотивам романа Джеймса Саллиса «Драйв» (Drive, 2005).-В фильме герой Гослинга ездит на автомообилях Ford Mustang GT 5,0, Chevy Malibu 1973 года,
а в начале фильма скрывается от погони на машине Chevrolet Impala SS.-Рон Перлман повредил коленную чашечку,
когда волна поражала его во время сцены на пляже.-Имя главного героя никогда не называется.
В финальных титрах он упоминается как «водитель».-Райан Гослинг заменил в проекте Хью Джекмана.-Николас Виндинг Рефн заменил на режиссерском посту Нила Маршала.-Джасинда Бэрретт пробовалась на роль Бланш.-Водитель носит часы фирмы Patek Philippe модели Calatrava 5196G.-В оригинале Ирэн должна была быть 30-летней латиноамериканкой.-Райан Гослинг многие трюки в фильме выполнил самостоятельно, без дублеров.-Съемки проходили в Лос-Анджелесе.-Николас Виндинг Рефн с самого начала решил,
что включит в фильме оперную композицию «Oh My Love» 1971 года.-Вторая сцена автомобильной гонки с участием Ford Mustang и Chrysler 300 снималась более двух дней,
близ Темплинской магистрали, где она отходит к Автостраде 5.-Сцена, когда Водитель совершает 270-градусный разворот на своём Mustang,
чтобы отстать от Chrysler, снималась одним дублем.-Режиссёр был вдохновлён сценой фильма Клода Лелуша «Это — свидание» (1976),
где авто несётся по улицам Парижа, а саундтрек заполнен рёвом двигателя,
поэтому в сцене преследования такие яркие звуки машин.-Сцена топтания головы была сильно урезана при монтаже,
так как Американская ассоциация кинокомпаний посчитала её слишком жестокой.-

Скриншоты



Последний раз редактировалось: Djoni111095 (2013-11-16 08:15), всего редактировалось 2 раз(а)

Создавать темы 07-Окт-2013 19:26

[Профиль]  [ЛС] 

star_from_the_sky

Стаж: 4 года 3 месяца

Сообщений: 22

Симпатии: 3

1 скрин обожаю ее

Создавать темы 07-Окт-2013 22:57

[Профиль]  [ЛС] 

GIGABYTE158

Стаж: 5 лет 2 месяца

Сообщений: 71

Симпатии: 13

мега релиз te te

Создавать темы 08-Окт-2013 00:56

[Профиль]  [ЛС] 

Hypercompact

Стаж: 4 года 4 месяца

Сообщений: 18

Симпатии: 3

Пожал бы руку релизеру, фильм просто космос, Райн лутший!

Создавать темы 14-Окт-2013 03:43

[Профиль]  [ЛС] 

freestyle

Стаж: 5 лет 7 месяцев

Сообщений: 55

Симпатии: 4

раздача ещё будет

Создавать темы 23-Янв-2014 19:51

[Профиль]  [ЛС] 

lfvbh

Стаж: 3 года 7 месяцев

Сообщений: 11

раздавайте плизз

Создавать темы 09-Июн-2014 15:29

[Профиль]  [ЛС] 
Показать сообщения:    
Ответить на тему

Текущее время: 23-Авг 18:53

Часовой пояс: UTC + 5



Вы не можете начинать темы
Вы не можете отвечать на сообщения
Вы не можете редактировать свои сообщения
Вы не можете удалять свои сообщения
Вы не можете голосовать в опросах
Вы не можете прикреплять файлы к сообщениям
Вы не можете скачивать файлы