Ничего не бойся / Nothing Left to Fear (Энтони Леонарди III / Anthony Leonardi III) [2013, США, ужасы, WEB-DLRip] DVO + Original Eng

Ответить на тему
 

Suxrob89 ®

Стаж: 7 лет 1 месяц

Сообщений: 933

Симпатии: 564

-Ничего не бойся / Nothing Left to Fear-«Когда врата отворятся»- Страна: США
Жанр: ужасы
Год выпуска: 2013
Продолжительность: 01:40:23
Перевод: Любительский (двухголосый закадровый) [DeadSno] & [den904]
Cубтитры: нет
Оригинальная аудиодорожка: английский-Режиссер: Энтони Леонарди III / Anthony Leonardi III
В ролях: Клэнси Браун, Энн Хеч, Дженнифер Стоун, Итан Пек, Ребека Брандес, Джеймс Таппер, Хезер Руп, Мишель ДеВито, Дж.Д. Эвермор, Уэйн Пер-Описание: В поисках новой работы и лучшей жизни добропорядочная семья переезжает в маленький безмятежный городок Сталл в штате Канзас. Кто бы знал, что согласно древней легенде именно в Сталле находится одно из семи врат ада, через которые время от времени на землю выбирается сам дьявол…- -Качество видео: WEB-DLRip
Формат видео: AVI
Видео: XviD, 720x304 (16:9), 23.9 fps, ~1515 kbps avg, 0.28 bit/pixel
Аудио 1: 48 kHz, AC3 Dolby Digital, 2 ch, ~192 kbps Ru
Аудио 2: 48 kHz, AC3 Dolby Digital, 6 ch, ~384 kbps En

MediaInfo

Общее
Полное имя : D:\AVI\Nothing Left to Fear_2013.avi
Формат : AVI
Формат/Информация : Audio Video Interleave
Размер файла : 1,48 Гбайт
Продолжительность : 1 ч. 40 м.
Общий поток : 2105 Кбит/сек
Программа кодирования : VirtualDubMod 1.5.10.3 | www.virtualdub-fr.org || (build 2550/release)
Библиотека кодирования : VirtualDubMod build 2550/release
Видео
Идентификатор : 0
Формат : MPEG-4 Visual
Профиль формата : Advanced [email protected]
Параметр BVOP формата : 1
Параметр QPel формата : Нет
Параметр GMC формата : Без точки перехода
Параметр матрицы формата : Default (MPEG)
Идентификатор кодека : XVID
Идентификатор кодека/Подсказка : XviD
Продолжительность : 1 ч. 40 м.
Битрейт : 1515 Кбит/сек
Ширина : 720 пикселей
Высота : 304 пикселя
Соотношение сторон : 2,35:1
Частота кадров : 23,976 кадра/сек
Частота кадров в оригинале : 25,000 кадров/сек
Цветовое пространство : YUV
Субдискретизация насыщенности : 4:2:0
Битовая глубина : 8 бит
Тип развёртки : Прогрессивная
Метод сжатия : С потерями
Бит/(Пиксели*Кадры) : 0.289
Размер потока : 1,06 Гбайт (72%)
Библиотека кодирования : XviD 64
Аудио #1
Идентификатор : 1
Формат : AC-3
Формат/Информация : Audio Coding 3
Расширение режима : CM (complete main)
Параметр Endianness формата : Big
Идентификатор кодека : 2000
Продолжительность : 1 ч. 40 м.
Вид битрейта : Постоянный
Битрейт : 192 Кбит/сек
Каналы : 2 канала
Расположение каналов : Front: L R
Частота : 48,0 КГц
Битовая глубина : 16 бит
Метод сжатия : С потерями
Размер потока : 138 Мбайт (9%)
Выравнивание : Разделение по промежуткам
Продолжительность промежутка : 42 мс. (1,00 видеокадр)
Время предзагрузки промежутка : 500 мс.
Аудио #2
Идентификатор : 2
Формат : AC-3
Формат/Информация : Audio Coding 3
Расширение режима : CM (complete main)
Параметр Endianness формата : Big
Идентификатор кодека : 2000
Продолжительность : 1 ч. 40 м.
Вид битрейта : Постоянный
Битрейт : 384 Кбит/сек
Каналы : 6 каналов
Расположение каналов : Front: L C R, Side: L R, LFE
Частота : 48,0 КГц
Битовая глубина : 16 бит
Метод сжатия : С потерями
Размер потока : 276 Мбайт (18%)
Выравнивание : Разделение по промежуткам
Продолжительность промежутка : 42 мс. (1,00 видеокадр)
Время предзагрузки промежутка : 500 мс.

Скриншот c названием фильма

Скриншоты

Создавать темы 08-Окт-2013 08:25

[Профиль]  [ЛС] 

4LIFEIP

Стаж: 4 года 5 месяцев

Сообщений: 127

Симпатии: 1

оценка фильма так себе, но нельзя назвать фильм из цикла второстепенных и начинающих режиссеров и продюсеров,так как в фильме использовались такие современные камеры как от компании сони и ck.
Фильм получился в своем жанре даже очень ничего,можно даже его пару раз посмотреть, ценители мрачных сюреалистических бытовых фильмов его оценят.Есть в этом фильме маленькая но есть искра. Но в основном не топиковый фильм.
О Тебе Волнуется ©
Спасибо Сухробу_) а то что то давно он фильмы не выставлял.

Создавать темы 08-Окт-2013 08:42

[Профиль]  [ЛС] 

jamik1003

Стаж: 5 лет 6 месяцев

Сообщений: 60

Симпатии: 3

4LIFEIP, и тебе спасибо. Старайся оставлять такие аккуратные мнения к ужастикам.

Создавать темы 08-Окт-2013 15:55

[Профиль]  [ЛС] 

arslan-mukatov

Стаж: 5 лет 7 месяцев

Сообщений: 74

фильм просто бестолковый, ни секунды времени ни стоит тратить!!!!

Создавать темы 14-Окт-2013 01:56

[Профиль]  [ЛС] 

Rustam1993

Стаж: 4 года 3 месяца

Сообщений: 17

Тогда не буду качать

Создавать темы 14-Окт-2013 18:55

[Профиль]  [ЛС] 
Показать сообщения:    
Ответить на тему

Текущее время: 20-Сен 07:11

Часовой пояс: UTC + 5



Вы не можете начинать темы
Вы не можете отвечать на сообщения
Вы не можете редактировать свои сообщения
Вы не можете удалять свои сообщения
Вы не можете голосовать в опросах
Вы не можете прикреплять файлы к сообщениям
Вы не можете скачивать файлы