Третий лишний / Ted (Сет МакФарлейн) [2012 г., фэнтези, комедия, BDRip]

Ответить на тему
 

emir ®

Стаж: 4 года 7 месяцев

Сообщений: 48

Симпатии: 2

Третий лишний / Ted
Год выпуска: 2012
Страна: США
Жанр: фэнтези, комедия
Продолжительность: 01:46:03
Перевод: Профессиональный (полное дублирование)
Режиссер: Сет МакФарлейн
В ролях: Марк Уолберг
Мила Кунис
Сет МакФарлейн
Джоэл МакХэйл
Джованни Рибизи
Патрик Варбертон
Мэтт Уолш
Билл Смитрович
Аэдин Минкс
Сэм Дж. Джонс
Описание: Джон влюблен в красавицу Лори, у него отличная работа и большие планы на будущее. Но в их отношения вмешивается третий, давний друг Джона — Тед. Он отрывается сутки напролет, предпочитает случайные связи и не желает терять друга. Но никто на самом деле не знает на что он способен, ведь Тед — большой плюшевый медведь.
Доп. информация: НЕ ЗАБЫВАЙТЕ ГОВОРИТЬ СПАСИБО!
Качество: BDRip
Формат: MKV
Видео кодек: AVC
Аудио кодек: DTS
Видео: 1280x688, 3775 Kbps, 23,976 кадра/сек
Аудио #1: 48 000 Гц, 6 Кан, 768 Kbps [Rus]
Аудио #2: 48 000 Гц, 6 Кан, 1509 Kbps [Eng]

M.I.

Уникальный идентификатор : 234670471395740916723963098992413582748 (0xB08BE387E6F4BB18BB6F0277BE45259C)
Полное имя : C:\Users\Emir\Desktop\Tretij.lishnij.2012.D.BDRip.720p.mkv
Формат : Matroska
Версия формата : Version 2
Размер файла : 4,57 Гбайт
Продолжительность : 1 ч. 46 м.
Общий поток : 6174 Кбит/сек
Дата кодирования : UTC 2012-11-08 00:02:19
Программа кодирования : mkvmerge v4.9.1 ('Ich will') built on Jul 11 2011 23:53:15
Библиотека кодирования : libebml v1.2.1 + libmatroska v1.1.1
Видео
Идентификатор : 1
Формат : AVC
Формат/Информация : Advanced Video Codec
Профиль формата : [email protected]
Параметр CABAC формата : Да
Параметр ReFrames формата : 5 кадров
Идентификатор кодека : V_MPEG4/ISO/AVC
Продолжительность : 1 ч. 46 м.
Битрейт : 3775 Кбит/сек
Номинальный битрейт : 5130 Кбит/сек
Ширина : 1280 пикселей
Высота : 688 пикселей
Соотношение сторон : 1,85:1
Режим частоты кадров : Постоянный
Частота кадров : 23,976 кадра/сек
Цветовое пространство : YUV
Субдискретизация насыщенности : 4:2:0
Битовая глубина : 8 бит
Тип развёртки : Прогрессивная
Бит/(Пиксели*Кадры) : 0.179
Размер потока : 2,80 Гбайт (61%)
Заголовок : Ted (2012)
Библиотека кодирования : x264 core 128 r2216 198a7ea
Настройки программы : cabac=1 / ref=5 / deblock=1:0:0 / analyse=0x3:0x133 / me=umh / subme=7 / psy=1 / psy_rd=1.00:0.00 / mixed_ref=1 / me_range=16 / chroma_me=1 / trellis=1 / 8x8dct=1 / cqm=0 / deadzone=21,11 / fast_pskip=1 / chroma_qp_offset=-2 / threads=18 / lookahead_threads=3 / sliced_threads=0 / nr=0 / decimate=1 / interlaced=0 / bluray_compat=0 / constrained_intra=0 / bframes=3 / b_pyramid=2 / b_adapt=2 / b_bias=0 / direct=3 / weightb=1 / open_gop=0 / weightp=2 / keyint=250 / keyint_min=23 / scenecut=40 / intra_refresh=0 / rc_lookahead=40 / rc=2pass / mbtree=1 / bitrate=5130 / ratetol=1.0 / qcomp=0.60 / qpmin=0 / qpmax=69 / qpstep=4 / cplxblur=20.0 / qblur=0.5 / ip_ratio=1.40 / aq=1:1.00
Язык : English
Default : Да
Forced : Да
Аудио #1
Идентификатор : 2
Формат : DTS
Формат/Информация : Digital Theater Systems
Режим : 16
Параметр Endianness формата : Big
Идентификатор кодека : A_DTS
Продолжительность : 1 ч. 46 м.
Вид битрейта : Постоянный
Битрейт : 768 Кбит/сек
Каналы : 6 каналов
Расположение каналов : Front: L C R, Side: L R, LFE
Частота : 48,0 КГц
Битовая глубина : 24 бит
Метод сжатия : С потерями
Размер потока : 583 Мбайт (12%)
Заголовок : DTS 5.1 @ 755 kbps - Dub, BD CEE
Язык : Russian
Default : Да
Forced : Да
Аудио #2
Идентификатор : 3
Формат : DTS
Формат/Информация : Digital Theater Systems
Режим : 16
Параметр Endianness формата : Big
Идентификатор кодека : A_DTS
Продолжительность : 1 ч. 46 м.
Вид битрейта : Постоянный
Битрейт : 1509 Кбит/сек
Каналы : 6 каналов
Расположение каналов : Front: L C R, Side: L R, LFE
Частота : 48,0 КГц
Битовая глубина : 24 бит
Метод сжатия : С потерями
Размер потока : 1,12 Гбайт (24%)
Заголовок : DTS 5.1 @ 1536 kbps
Язык : English
Default : Нет
Forced : Нет
Меню
00:00:00.000 : en:Chapter 01
00:04:05.912 : en:Chapter 02
00:10:11.819 : en:Chapter 03
00:15:25.132 : en:Chapter 04
00:19:31.545 : en:Chapter 05
00:25:47.879 : en:Chapter 06
00:30:48.972 : en:Chapter 07
00:34:31.194 : en:Chapter 08
00:41:05.045 : en:Chapter 09
00:47:41.692 : en:Chapter 10
00:52:33.942 : en:Chapter 11
00:58:44.395 : en:Chapter 12
01:03:42.360 : en:Chapter 13
01:08:20.638 : en:Chapter 14
01:13:04.421 : en:Chapter 15
01:17:35.025 : en:Chapter 16
01:24:12.630 : en:Chapter 17
01:31:35.490 : en:Chapter 18
01:35:17.670 : en:Chapter 19
01:40:34.737 : en:Chapter 20

Скриншоты





Последний раз редактировалось: emir (2013-10-08 20:59), всего редактировалось 3 раз(а)

Создавать темы 08-Окт-2013 16:00

[Профиль]  [ЛС] 

emir ®

Стаж: 4 года 7 месяцев

Сообщений: 48

Симпатии: 2

victor0778, спасибо

Создавать темы 08-Окт-2013 21:47

[Профиль]  [ЛС] 

emir ®

Стаж: 4 года 7 месяцев

Сообщений: 48

Симпатии: 2

раздавать обычно буду ночью на полной скорости

Создавать темы 08-Окт-2013 21:48

[Профиль]  [ЛС] 

hildeN

Стаж: 6 лет 9 месяцев

Сообщений: 59

Симпатии: 2

раздавать обычно буду ночью на полной скорости
стань на раздачу

Создавать темы 23-Окт-2013 18:19

[Профиль]  [ЛС] 

hildeN

Стаж: 6 лет 9 месяцев

Сообщений: 59

Симпатии: 2

стань на раздачу пож.

Создавать темы 21-Ноя-2013 23:07

[Профиль]  [ЛС] 
Показать сообщения:    
Ответить на тему

Текущее время: 20-Ноя 08:57

Часовой пояс: UTC + 5



Вы не можете начинать темы
Вы не можете отвечать на сообщения
Вы не можете редактировать свои сообщения
Вы не можете удалять свои сообщения
Вы не можете голосовать в опросах
Вы не можете прикреплять файлы к сообщениям
Вы не можете скачивать файлы