Порко Россо / Porco Rosso / Kurenai no buta (Хаяо Миядзаки) [Movie] [Без хардсаба] [RUS] [1992 г., приключения, история, комедия, DVDRip]

Ответить на тему
 

pbyeh ®

Стаж: 5 лет 4 месяца

Сообщений: 33

Симпатии: 2

Порко РоссоKurenai no buta | Porco Rosso | 紅の豚
Год выпуска: 1992
Страна: Япония
Жанр: приключения, история, комедия, драма
Продолжительность: 01:33:31
Перевод: Профессиональный русский(многоголосый, закадровый)
Русские субтитры: нет
Студия:
Режиссер: Хаяо Миадзаки
-
Описание: Адриатика, двадцатые годы прошлого столетия. Итальянский пилот Марко Паготт храбро сражался в годы первой мировой войны. Однако после войны он разочаровался в военном деле, себе и людях, превратившись в самую настоящую свинью. В конце двадцатых, когда в Италии к власти пришли фашисты во главе с Муссолини, Марко, назвавший себя Порко Россо ("Малиновая свинья"), начал работать спасателем по найму в небе Адриатики. Его гидросамолет наводит ужас на воздушных пиратов, однако это не приносит Порко удовлетворения и душевного спокойствия...
-
Качество: DVDRip
Формат: AVI
Видео кодек: DivX
Аудио кодек: AC3
Видео: DivX 5 720x416 23.98fps
Аудио: Rus(Дубляж) AC3 48000Hz stereo 192Kbps
Русская озвучка(Внешним файлом):
● Аудио 1: | AAC | 48 kHz | ~236 kbps | 2.0 ch [Одноголосная закадровая озвучка, Гаврилов]
● Аудио 2: | AAC | 48 kHz | ~219 kbps | 2.0 ch [Двухголосная закадровая озвучка, Гланц & Королева]
● Аудио 3: | AAC | 48 kHz | ~155 kbps | 2.0 ch [Многоголосная профессиональная закадровая озвучка]
● Аудио 4: | AAC | 48 kHz | ~236 kbps | 2.0 ch [Одноголосная закадровая озвучка, Толстобров]

Интересные факты:

1) Миядзаки не единственный раз использует свинью в фильме. В более новом «Spirited Away» так же два главных героя превращаются в свиней. Скорее всего, аниматор хочет показать нам данное превращение не как физическое, а как духовное. В одном интервью, он сказал: «Свиньи очень похожи на людей, особенно мужчины, с возрастом у них отрастают животы и они становятся похожи на свиней». Сам Миядзаки очень любит этих животных и поэтому часто использует их в своих фильмах.
2) Большая часть событий в «Porco Rosso» построена на реальных событиях и реальных героях. Исключением является, конечно, «свинство» Марко Паготта.
3) Пиратская банда «Mamma Aiuto» с итальянского переводится как "Help, Mama!".
4) В начале фильма нам показывают титры на следующих языках: японском, итальянском, корейском, английском, китайском, испанском, арабском, русском, французском и германском.
5) В 1920 – 30-е гг. Италией управлял фашист Муссолини, его имя знала вся страна от мала до велика. Его профиль с бритой головой и выпяченной нижней челюстью печатался на монетах, его многочисленные портреты, бюсты, фотографии красовались во всех государственных учреждениях и жилых домах. Его имя набиралось КРУПНЫМ шрифтом на каждой странице во всех газетах, неоднократно в течение дня звучало по всем программам национального радио. Кинохроника запечатлевала его на многочисленных парадах, митингах, соревнованиях. Это был крупнейший в Европе культ личности, безраздельно господствовавший в Италии с октября 1922 г. по июль 1943 г. Однако после смерти тело Муссолини в знак позора было подвешено вверх ногами. Недаром профиль этого диктатора Миядзаки изобразил в виде змеи на банкнотах.
6) В фильме, Марко Паготт поехал в Милан собирать самолет и увидел, что на заводе работают лишь женщины. На вопрос почему, ему ответили, что все мужчины ушли на заработки из-за «великой депрессии». На самом деле подготовка к военным и колониальным захватам позволила Италии с минимальными потерями выйти из «великой депрессии» 30-х гг.

Media Info

General
Complete name : D:\Torrent\Porco_Rosso_(1992)_DVDRip\Porco.Rosso.(1992).DVDRip..avi
Format : AVI
Format/Info : Audio Video Interleave
Format profile : OpenDML
File size : 2.00 GiB
Duration : 1h 33mn
Overall bit rate : 3 062 Kbps
Writing application : VirtualDubMod 1.5.4.1 (build 2178/release)
Writing library : VirtualDubMod build 2178/release
Video
ID : 0
Format : MPEG-4 Visual
Format settings, BVOP : 1
Format settings, QPel : No
Format settings, GMC : No warppoints
Format settings, Matrix : Default (H.263)
Muxing mode : Packed bitstream
Codec ID : DX50
Codec ID/Hint : DivX 5
Duration : 1h 33mn
Bit rate : 2 861 Kbps
Width : 720 pixels
Height : 416 pixels
Display aspect ratio : 1.731
Frame rate : 23.976 fps
Color space : YUV
Chroma subsampling : 4:2:0
Bit depth : 8 bits
Scan type : Progressive
Compression mode : Lossy
Bits/(Pixel*Frame) : 0.398
Stream size : 1.86 GiB (93%)
Writing library : DivX 6.6.1.4
Audio
ID : 1
Format : AC-3
Format/Info : Audio Coding 3
Mode extension : CM (complete main)
Format settings, Endianness : Big
Codec ID : 2000
Duration : 1h 33mn
Bit rate mode : Constant
Bit rate : 192 Kbps
Channel(s) : 2 channels
Channel positions : Front: L R
Sampling rate : 48.0 KHz
Bit depth : 16 bits
Compression mode : Lossy
Stream size : 128 MiB (6%)
Alignment : Split accross interleaves
Interleave, duration : 96 ms (2.30 video frames)
Interleave, preload duration : 96 ms

Скриншоты



Приятного просмотра !!
-
МОИ РАЗДАЧИ
Могила светлячков
Ариэтти из страны лилипутов
Рыбка Поньо на утесе
Шепот сердца
Навсикая из долины ветров
Наши соседи - семья Ямада

Создавать темы 08-Окт-2013 21:32

[Профиль]  [ЛС] 

Deadушка

Стаж: 6 лет 5 месяцев

Сообщений: 78

Симпатии: 89

Осталось всего немного, дайте скачать!

Создавать темы 15-Июл-2014 15:00

[Профиль]  [ЛС] 
Показать сообщения:    
Ответить на тему

Текущее время: 23-Сен 03:39

Часовой пояс: UTC + 5



Вы не можете начинать темы
Вы не можете отвечать на сообщения
Вы не можете редактировать свои сообщения
Вы не можете удалять свои сообщения
Вы не можете голосовать в опросах
Вы не можете прикреплять файлы к сообщениям
Вы не можете скачивать файлы