Околофутбола (Антон Борматов) [2013 г., драма, криминал, TVRip]

Ответить на тему
 

Imperiya ®

Стаж: 6 лет 6 месяцев

Сообщений: 275

Симпатии: 4

Околофутбола
Год выпуска: 2013
Жанр: драма, криминал
Страна: Россия / Фонд кино, Front Line Studio, Кинокомпания CTB
Продолжительность: 01:29:23
Перевод: Оригинальное-Режиссер: Антон Борматов-В ролях: Александр Ратников, Павел Ерлыков, Григорий Иванец, Иван Фоминов, Дарья Мингазетдинова, Владимир Царулков, Юлия Маньковская-Описание: Фильм о самой закрытой части футбольных болельщиков — околофутбольных хулиганах. Они — самые агрессивные и жестокие представители мира футбольных фанатов. Они — элита околофутбола. Кем бы они ни были в обычной жизни — студентами или банкирами, музыкантами или автомеханиками, на самом деле все они — одна «фирма». Попасть в «фирму» очень сложно, но если ты в ней оказался — это на всю жизнь. И обратного пути нет.- -Сценарий: Дмитрий Лемешев, Иван Медведев, Алексей Горбунов, ...
Продюсер: Сергей Сельянов, Елена Быкова, Денис Лось, ...
Оператор: Игорь Гринякин
Композитор: Антон Завьялов, Кирилл Горохов
Художник: Галия Садарова, Елена Дронова, Иван Щетинин
Монтаж: Мария Сергеенкова, Анатолий Тимофеев, Ольга Прошкина, ...-трейлер :RAP кинообзор – Околофутбола http://mover.uz/watch/OYVmmr/
Качество: TVRip
Формат: AVI
Видео кодек: XviD
Аудио кодек: AC3
Видео: 1900 kb/s, 720x304, 25.000 fps
Аудио: AC3, 256 kb/s (2 ch), 48.0 KHz

Media Info

D:\Kino\Zarubej\Okolofutbola.2013.j.k.TVRip.1400MB.avi
General
Complete name : D:\Kino\Zarubej\Okolofutbola.2013.j.k.TVRip.1400MB.avi
Format : AVI
Format/Info : Audio Video Interleave
File size : 1.37 GiB
Duration : 1h 30mn
Overall bit rate : 2 165 Kbps
Writing application : VirtualDubMod 1.5.10.2 (build 2540/release)
Writing library : VirtualDubMod build 2540/release
Video #0
ID : 0
Format : MPEG-4 Visual
Format profile : Advanced [email protected]
Format settings, BVOP : 2
Format settings, QPel : No
Format settings, GMC : No warppoints
Format settings, Matrix : Custom
Codec ID : XVID
Codec ID/Hint : XviD
Duration : 1h 30mn
Bit rate : 1 900 Kbps
Width : 720 pixels
Height : 304 pixels
Display aspect ratio : 2.35:1
Frame rate : 25.000 fps
Color space : YUV
Chroma subsampling : 4:2:0
Bit depth : 8 bits
Scan type : Progressive
Compression mode : Lossy
Bits/(Pixel*Frame) : 0.347
Stream size : 1.20 GiB (88%)
Writing library : XviD 1.2.1 (UTC 2008-12-04)
Audio #1
ID : 1
Format : AC-3
Format/Info : Audio Coding 3
Mode extension : CM (complete main)
Format settings, Endianness : Big
Codec ID : 2000
Duration : 1h 30mn
Bit rate mode : Constant
Bit rate : 256 Kbps
Channel(s) : 2 channels
Channel positions : Front: L R
Sampling rate : 48.0 KHz
Bit depth : 16 bits
Compression mode : Lossy
Stream size : 165 MiB (12%)
Alignment : Split accross interleaves
Interleave, duration : 40 ms (1.00 video frame)
Interleave, preload duration : 500 ms

Скриншоты



Последний раз редактировалось: Imperiya (2013-10-09 01:34), всего редактировалось 5 раз(а)

Создавать темы 08-Окт-2013 21:34

[Профиль]  [ЛС] 

Топик был перенесен из форума Фильмы за 2013 (новинки) в форум CamRip\Telesync\SATRip\TVRip

Grock

Создавать темы 09-Окт-2013 00:22

 

Топик был перенесен из форума CamRip\Telesync\SATRip\TVRip в форум Фильмы за 2013 (новинки)

Imperiya

Создавать темы 09-Окт-2013 01:25

 

Imperiya ®

Стаж: 6 лет 6 месяцев

Сообщений: 275

Симпатии: 4

Обовните торрент

Создавать темы 09-Окт-2013 01:25

[Профиль]  [ЛС] 

victor0778

Стаж: 6 лет 8 месяцев

Сообщений: 1670

Симпатии: 142

Imperiya, неужто вы думаете, что если напишите в названии файла HDRip то он таким и станет по качеству? Это TVRip как ни крути

Создавать темы 09-Окт-2013 01:31

[Профиль]  [ЛС] 

Топик был перенесен из форума Фильмы за 2013 (новинки) в форум CamRip\Telesync\SATRip\TVRip

victor0778

Создавать темы 09-Окт-2013 01:32

 

Лекс

Стаж: 4 года 11 месяцев

Сообщений: 31

victor0778, Но по крайней мере ТВ рип это далеко не кам рип и не синг!Мне кажется это нельзя объединять!

Создавать темы 09-Окт-2013 01:54

[Профиль]  [ЛС] 

victor0778

Стаж: 6 лет 8 месяцев

Сообщений: 1670

Симпатии: 142

victor0778, Но по крайней мере ТВ рип это далеко не кам рип и не синг!Мне кажется это нельзя объединять!
поэтому и ставится в статусе проверено, а под каждое качество создавать разделы тоже не разумно. те кто разбираются качают и знают что получат вполне смотрительное качество, а остальные пусть почитают о качествах видео, в разделе Инструкции, FAQ-и

Создавать темы 09-Окт-2013 02:08

[Профиль]  [ЛС] 

Лекс

Стаж: 4 года 11 месяцев

Сообщений: 31

victor0778, Спорить не буду но Сат рип и Тв рип совершенно другой раздел,если это конечно оно!

Создавать темы 09-Окт-2013 02:16

[Профиль]  [ЛС] 

victor0778

Стаж: 6 лет 8 месяцев

Сообщений: 1670

Симпатии: 142

Лекс, давайте не будем, эта тема уже избита на нет и всё равно так всё во всяком случае пока и останется. удачи

Создавать темы 09-Окт-2013 02:21

[Профиль]  [ЛС] 
Показать сообщения:    
Ответить на тему

Текущее время: 23-Окт 00:25

Часовой пояс: UTC + 5



Вы не можете начинать темы
Вы не можете отвечать на сообщения
Вы не можете редактировать свои сообщения
Вы не можете удалять свои сообщения
Вы не можете голосовать в опросах
Вы не можете прикреплять файлы к сообщениям
Вы не можете скачивать файлы