Кошечка из Сакурасо / Sakurasou no Pet na Kanojo (Исидзука Ацуко) [TV] [24 из 24] [без хардсаба] [RUS(ext), JAP+SUB] [2012 г., комедия, драма, романтика, BDRip] [720p]

Ответить на тему
 

MeiDoCorpse ®

Стаж: 4 года 7 месяцев

Сообщений: 222

Симпатии: 14

- Год выпуска: 2012
Страна: Япония
Жанр: комедия, драма, романтика
Продолжительность: ТВ | 24 эп. по 25 мин.-Режиссёр: Исидзука Ацуко
Автор оригинала: Камосида Хадзимэ
Студия: J.C. Staff-Описание:
В старшей школе искусств университета Суймэй есть множество общежитий, а есть доходный дом «Сакура». Если в общежитиях действуют строгие правила, то в «Сакуре» можно все, недаром ее местное прозвище – «сумасшедший дом». Так как в искусстве гений и сумасшествие всегда где-то рядом, то обитатели «вишневого сада» - талантливые и интересные ребята, слишком уж выбивающиеся из «болота». Взять хотя бы шумную Мисаки, что продает мейджор-студиям собственное аниме, ее друга и сценариста плейбоя Дзина или программиста-затворника Рюносукэ, что общается с миром лишь по Сети и телефону. По сравнению с ними главный герой Сората Канда – простак, попавший в «психушку» всего лишь за… любовь к кошкам!
Поэтому Тихиро-сэнсэй, глава общежития, поручила Сорате, как единственному вменяемому постояльцу, встретить свою двоюродную сестру Масиро, что переводится в их школу из далекой Британии. Хрупкая блондинка показалась Канде настоящим светлым ангелом. Правда, на вечеринке с новыми соседями гостья держалась скованно и говорила мало, но свежеиспеченный поклонник списал все на понятный стресс и усталость с дороги. Только настоящий стресс ждал Сорату утром, когда он пошел будить Масиро. Герой с ужасом понял, что его новая знакомая – великий художник абсолютно не от мира сего, то есть, самостоятельно даже одеться не способна! А коварная Тихиро тут как тут - отныне Канда будет вечно ухаживать за ее сестрой, ведь на кошках парень уже потренировался!
© Hollow, World Art-Информационные ссылки: AniDB || World Art || MAL-Качество: BDRip
Энкод: Winter
Контейнер: mkv
Тип видео: Без хардсаба
Наличие линковки: Нет
Видео: x264 (Hi10p), 1280x720, ~2600 Kbps, 23.976 fps
Аудио: Japanese, Vorbis, 48000Hz, ~256 Kbps, 2ch, в составе контейнера
Аудио: Russian, AC3, 48000Hz, ~192 Kbps, 2ch, внешними файлами | Zendos & Eladiel
Субтитры: Russian, ASS, внешними файлами | kuro & Bel-chan (1-18 / 24)
Субтитры: Russian, ASS, внешними файлами | Dreamers Team (19-24 / 24)-

Список эпизодов

01. Cat. White. Mashiro
02. I Drew a Picture
03. So Close and Yet So Far...
04. A World of Changing Colors
05. The Serious Girl of Sakura Hall
06. The Blue After the Rain
07. Her Homesickness
08. Set Off a Huge Firework
09. The Fall Storm Is Here
10. Hate Hate, Love
11. Milky Way Cat, Nyapollon
12. The Power of Love in the Cultural Festival
13. One Step Before Winter
14. The Windows and Lights of Christmas Eve
15. Where Is My Usual Self?
16. I`ve Always Loved You
17. Valentine`s Day Is Chocolate Day
18. First Love with an Alien
19. There`s No Place Like Sakura Hall
20. In Order to Keep Saying We`re Home
21. It`s Not Anyone`s Fault That It Rains
22. Run Through Those Sparkling Days
23. Graduation Ceremony
24. Welcome to Sakura Hall

Скриншоты

Подробные тех. данные

General
Unique ID : 254229954445750873380058410422522663030 (0xBF42E87FF95487618628753A63B4D076)
Complete name : E:\Sakurasou no Pet na Kanojo [BD] [720p]\[Winter] Sakurasou no Pet na Kanojo 01 [BDrip 1280x720 x264 Vorbis].mkv
Format : Matroska
Format version : Version 2
File size : 465 MiB
Duration : 23mn 42s
Overall bit rate mode : Variable
Overall bit rate : 2 744 Kbps
Encoded date : UTC 2013-02-06 08:59:48
Writing application : mkvmerge v2.9.8 ('C'est le bon') built on Aug 13 2009 12:49:06
Writing library : libebml v0.7.7 + libmatroska v0.8.1
Video
ID : 1
Format : AVC
Format/Info : Advanced Video Codec
Format profile : High [email protected]
Format settings, CABAC : Yes
Format settings, ReFrames : 9 frames
Codec ID : V_MPEG4/ISO/AVC
Duration : 23mn 42s
Bit rate : 2 434 Kbps
Width : 1 280 pixels
Height : 720 pixels
Display aspect ratio : 16:9
Frame rate mode : Constant
Frame rate : 23.976 fps
Color space : YUV
Chroma subsampling : 4:2:0
Bit depth : 10 bits
Scan type : Progressive
Bits/(Pixel*Frame) : 0.110
Stream size : 413 MiB (89%)
Writing library : x264 core 129 r2230 1cffe9f
Encoding settings : cabac=1 / ref=9 / deblock=1:-2:-2 / analyse=0x3:0x133 / me=umh / subme=9 / psy=1 / psy_rd=0.90:0.00 / mixed_ref=1 / me_range=24 / chroma_me=1 / trellis=2 / 8x8dct=1 / cqm=0 / deadzone=21,11 / fast_pskip=1 / chroma_qp_offset=-2 / threads=6 / lookahead_threads=1 / sliced_threads=0 / nr=0 / decimate=0 / interlaced=0 / bluray_compat=0 / constrained_intra=0 / bframes=8 / b_pyramid=2 / b_adapt=2 / b_bias=0 / direct=1 / weightb=1 / open_gop=0 / weightp=2 / keyint=250 / keyint_min=23 / scenecut=40 / intra_refresh=0 / rc=crf / mbtree=0 / crf=15.8 / qcomp=0.70 / qpmin=9 / qpmax=40 / qpstep=4 / ip_ratio=1.40 / pb_ratio=1.30 / aq=1:0.90
Default : No
Forced : No
Audio
ID : 2
Format : Vorbis
Format settings, Floor : 1
Codec ID : A_VORBIS
Duration : 23mn 42s
Bit rate mode : Variable
Bit rate : 256 Kbps
Channel count : 2 channels
Sampling rate : 48.0 KHz
Compression mode : Lossy
Stream size : 43.4 MiB (9%)
Writing library : libVorbis (Schaufenugget) (20101101 (Schaufenugget))
Language : Japanese
Default : Yes
Forced : No

Отличия

Азиз87 - BDRip vs. HDTVRip

Создавать темы 09-Окт-2013 10:57

[Профиль]  [ЛС] 

тролль

Стаж: 4 года 5 месяцев

Сообщений: 49

Симпатии: 2

эхх... забыли совсем что такое смысл

Создавать темы 09-Окт-2013 15:51

[Профиль]  [ЛС] 

SNIL

Стаж: 5 лет 11 месяцев

Сообщений: 2624

Симпатии: 341

тролль, к чему это?

Создавать темы 09-Окт-2013 16:34

[Профиль]  [ЛС] 

Rambotnik

Стаж: 6 лет 7 месяцев

Сообщений: 1274

Симпатии: 81

эхх... забыли совсем что такое смысл
В связи с чем, выражаем Вам наши глубочайшие соболезнования и желаем вспомнить, что же это такое)

Создавать темы 09-Окт-2013 18:01

[Профиль]  [ЛС] 

utakata

Стаж: 5 лет 11 месяцев

Сообщений: 70

Симпатии: 2

Дап дап дап) Щикарное аниме)

Создавать темы 09-Окт-2013 22:01

[Профиль]  [ЛС] 
Показать сообщения:    
Ответить на тему

Текущее время: 16-Дек 14:21

Часовой пояс: UTC + 5



Вы не можете начинать темы
Вы не можете отвечать на сообщения
Вы не можете редактировать свои сообщения
Вы не можете удалять свои сообщения
Вы не можете голосовать в опросах
Вы не можете прикреплять файлы к сообщениям
Вы не можете скачивать файлы