Ангел-А / Angel-A (Люк Бессон) [2005 г., фэнтези, драма, мелодрама, комедия, ..., DVDRip]

Ответить на тему
 

igor1968 ®

Стаж: 5 лет 5 месяцев

Сообщений: 366

Симпатии: 197

Ангел-А / Angel-A«Самый красивый дар небес!» Год выпуска: 2005
Страна:
Жанр: фэнтези, драма, мелодрама, комедия, ...
Продолжительность: 01:27:04.000
Перевод: Профессиональный (полное дублирование)
Режиссер: Люк Бессон
В ролях: Жамель Деббуз, Рье Расмуссен, Жильбер Мелки, Серж Рябукин, Аким Шир, Эрик Балье, Луис Пора, Венус Бун, Жером Жесдон, Мишель Бел...
Роли дублировали: Вячеслав Баранов, Мария Овчинникова, Никита Прозоровский, Игорь Тарадайкин, Пётр Иващенко ...
28-летний Андре должен десятки тысяч евро различным бандитам по всему Парижу. Когда подходит срок расплаты, он понимает, что шансов расплатиться — нет. И в полиции, и в американском посольстве ему отказывают в помощи.
Но вот, решив покончить с собой, он видит на мосту сногсшибательную красотку в очень маленьком черном платье, которая прыгает в Сену. Андре бросается за ней. Спасенная девушка обещает помочь Андре во всем: она придумывает удивительные способы добывать деньги и помогает решить проблемы с кредиторами. Но тут Андре начинает задаваться вопросом — почему эта восхитительная девушка так старается ради него?- -Премьера
21 декабря 2005, ...
Премьера
8 марта 2006, «Централ Партнершип»
Релиз на DVD
20 апреля 2006, «CP-Digital», ...
Качество: DVDRip
Формат: AVI
Видео кодек: XviD
Аудио кодек: AC3
Видео: 720x304 (2.37:1), 25 fps, XviD build 43 ~1933 kbps avg, 0.35 bit/pixel
Аудио: 48 kHz, AC3 Dolby Digital, 3/2 (L,C,R,l,r) + LFE ch, ~448.00 kbps avg-

MediaInfo

General
Complete name : Angel.A.2005.RUS.DVDRip.XviD.AC3.-HQ-ViDEO.avi
Format : AVI
Format/Info : Audio Video Interleave
File size : 1.45 GiB
Duration : 1h 27mn
Overall bit rate : 2 392 Kbps
Movie name : Ангел-А / Angel A (2005)
Director : SENATOR (UnSeeN)
Writing application : VirtualDubMod 1.5.4.1 (build 2178/release)
Copyright : HQ-ViDEO (www.hq-video.ru)
Comment : 13.02.2008
Video
ID : 0
Format : MPEG-4 Visual
Format profile : Advanced [email protected]
Format settings, BVOP : No
Format settings, QPel : No
Format settings, GMC : No warppoints
Format settings, Matrix : Custom
Codec ID : XVID
Codec ID/Hint : XviD
Duration : 1h 27mn
Bit rate : 1 934 Kbps
Width : 720 pixels
Height : 304 pixels
Display aspect ratio : 2.35:1
Frame rate : 25.000 fps
Color space : YUV
Chroma subsampling : 4:2:0
Bit depth : 8 bits
Scan type : Progressive
Compression mode : Lossy
Bits/(Pixel*Frame) : 0.353
Stream size : 1.18 GiB (81%)
Writing library : XviD 1.2.0SMP (UTC 2006-01-08)
Audio
ID : 1
Format : AC-3
Format/Info : Audio Coding 3
Mode extension : CM (complete main)
Format settings, Endianness : Big
Codec ID : 2000
Duration : 1h 27mn
Bit rate mode : Constant
Bit rate : 448 Kbps
Channel(s) : 6 channels
Channel positions : Front: L C R, Side: L R, LFE
Sampling rate : 48.0 KHz
Bit depth : 16 bits
Compression mode : Lossy
Stream size : 279 MiB (19%)
Alignment : Split accross interleaves
Interleave, duration : 40 ms (1.00 video frame)
Interleave, preload duration : 500 ms
-

Скриншоты

- - -

Создавать темы 09-Окт-2013 20:19

[Профиль]  [ЛС] 

dosya_24

Стаж: 5 лет 6 месяцев

Сообщений: 36

Давно хотел посмотреть этот фильм. Спасибо !!!

Создавать темы 10-Окт-2013 21:59

[Профиль]  [ЛС] 

Maksim

Стаж: 4 года 9 месяцев

Сообщений: 3

дайте скачать пожалуйста уже месяц качает, всё на 53% застопорилось, дайте скорости ребята плиз....

Создавать темы 22-Окт-2014 14:37

[Профиль]  [ЛС] 

sadurin

Стаж: 5 лет 6 месяцев

Сообщений: 4

спс + 5

Создавать темы 14-Ноя-2014 14:31

[Профиль]  [ЛС] 
Показать сообщения:    
Ответить на тему

Текущее время: 18-Авг 00:32

Часовой пояс: UTC + 5



Вы не можете начинать темы
Вы не можете отвечать на сообщения
Вы не можете редактировать свои сообщения
Вы не можете удалять свои сообщения
Вы не можете голосовать в опросах
Вы не можете прикреплять файлы к сообщениям
Вы не можете скачивать файлы