Золушка / Cinderella (Клайд Джероними / Clyde Geronimi, Уилфред Джексон / Wilfred Jackson, Хэмильтон Ласки / Hamilton Luske) [1950 г., фэнтези, мелодрама, мюзикл, семейный, мультфильм]

Страницы :  1, 2  След.

Ответить на тему
 

jaska-3d ®

Стаж: 5 лет 11 месяцев

Сообщений: 250

Симпатии: 25

Золушка/Cinderella«The greatest love story ever told.»-
Год выпуска: 1950
Страна: США
Жанр: мультфильм, мюзикл, фэнтези, мелодрама, семейный, ... слова
Продолжительность: 01:14:28
Перевод: Профессиональный (многоголосый, закадровый) New Dream Media
Субтитры: нет-Режиссер: Клайд Джероними, Уилфред Джексон, Хэмильтон Ласки
Сценарий: Шарль Перро, Билл Пит, Эрдман Пеннер, ...
Продюсер: Уолт Дисней
Монтаж: Дональд Холлидэй-В ролях: Илен Вудс / Ilene Woods (Cinderella, озвучка), Элеонор Одли / Eleanor Audley (Lady Tremaine, озвучка), Верна Фелтон / Verna Felton (Fairy Godmother, озвучка), Рода Уильямс / Rhoda Williams (Drizella, озвучка), Джеймс МакДональд / James MacDonald (в титрах: James Macdonald) (Bruno, Gus, Jaques, озвучка), Луис Ван Рутен / Luis Van Rooten (King, Grand Duke, озвучка), Дон Барклай / Don Barclay (Doorman, озвучка), Люсиль Блисс / Lucille Bliss (Anastasia, озвучка, в титрах не указана)
-Описание: Золушка — бедная сиротка, которую злая мачеха и ее вздорные дочки заставляют тяжко работать с утра до ночи. Она так хочет попасть на королевский бал. На помощь бедняжке приходит Добрая фея! Силой волшебства она наделяет Золушку роскошной каретой, чудесным платьем и необыкновенными хрустальными башмачками.-Бюджет: $2 900 000
Сборы в США: $34 101 149 сборы var is_usa_box_popup = true;
Зрители: Франция 13.2 млн , Великобритания 7.9 млн , Испания 3.03 млн
Премьера (мир): 15 февраля 1950, ...
Релиз на DVD: 13 ноября 2012, «Уолт Дисней Компани СНГ», ...
Релиз на Blu-Ray: 13 ноября 2012, «Уолт Дисней Компани СНГ», ...
Рейтинг MPAA: Нет возрастных ограничений-- -- -Релиз группы: -Качество: BDRip (источник: CHDBits / Blu-ray / 1080р)
Формат: AVI
Видео кодек: XviD
Аудио кодеk: AC3
Видео: 672x496 (4:3), 23.976 fps, XviD, 1 883 Kbps
Аудио: Аудио #1: AC3, 192 Kbps, 48.0 KHz, 2 ch

МедиаИнфо

General
Complete name                    : Zolushka.1950.RUS.BDRip.XviD.AC3.-HQCLUB.avi
Format                           : AVI
Format/Info                      : Audio Video Interleave
File size                        : 1.08 GiB
Duration                         : 1h 14mn
Overall bit rate                 : 2 084 Kbps
Movie name                       : Золушка / Cinderella (1950) BDRip
Director                         : kingsize87
Writing application              : VirtualDubMod 1.5.10.2 (build 2542/release)
Writing library                  : VirtualDubMod build 2542/release
Copyright                        : http://hqclub.net/
Comment                          : 25.08.2012
Video
ID                               : 0
Format                           : MPEG-4 Visual
Format profile                   : Advanced [email protected]
Format settings, BVOP            : Yes
Format settings, QPel            : No
Format settings, GMC             : No warppoints
Format settings, Matrix          : Custom
Codec ID                         : XVID
Codec ID/Hint                    : XviD
Duration                         : 1h 14mn
Bit rate                         : 1 883 Kbps
Width                            : 672 pixels
Height                           : 496 pixels
Display aspect ratio             : 4:3
Frame rate                       : 23.976 fps
Color space                      : YUV
Chroma subsampling               : 4:2:0
Bit depth                        : 8 bits
Scan type                        : Progressive
Bits/(Pixel*Frame)               : 0.236
Stream size                      : 1 003 MiB (90%)
Writing library                  : XviD 65
Audio
ID                               : 1
Format                           : AC-3
Format/Info                      : Audio Coding 3
Mode extension                   : CM (complete main)
Codec ID                         : 2000
Duration                         : 1h 14mn
Bit rate mode                    : Constant
Bit rate                         : 192 Kbps
Channel(s)                       : 2 channels
Channel positions                : Front: L R
Sampling rate                    : 48.0 KHz
Bit depth                        : 16 bits
Stream size                      : 102 MiB (9%)
Alignment                        : Split accross interleaves
Interleave, duration             : 42 ms (1.00 video frame)
Interleave, preload duration     : 500 ms

Скриншоты










Последний раз редактировалось: jaska-3d (2013-10-19 20:03), всего редактировалось 4 раз(а)

Создавать темы 10-Окт-2013 04:02

[Профиль]  [ЛС] 

jaska-3d ®

Стаж: 5 лет 11 месяцев

Сообщений: 250

Симпатии: 25

Скоро выложу остальные две части мультика


Последний раз редактировалось: jaska-3d (2013-10-21 07:59), всего редактировалось 2 раз(а)

Создавать темы 10-Окт-2013 04:28

[Профиль]  [ЛС] 

СтАсИкОс

Стаж: 6 лет 10 месяцев

Сообщений: 314

Симпатии: 20

jaska-3d, Напишите ему в лс - http://tas-ix.net/profile.php?mode=viewprofile&u=31258

Создавать темы 10-Окт-2013 08:11

[Профиль]  [ЛС] 

sanjar0049

Стаж: 5 лет 7 месяцев

Сообщений: 35

Симпатии: 1

дайте газа пожалуйста

Создавать темы 10-Окт-2013 11:31

[Профиль]  [ЛС] 

jaska-3d ®

Стаж: 5 лет 11 месяцев

Сообщений: 250

Симпатии: 25

как язык ???
Профессиональный (многоголосый, закадровый) New Dream Media - (Русский)

Создавать темы 10-Окт-2013 21:30

[Профиль]  [ЛС] 

sanjar0049

Стаж: 5 лет 7 месяцев

Сообщений: 35

Симпатии: 1

не качается.дайте скачать пжл.

Создавать темы 11-Окт-2013 12:35

[Профиль]  [ЛС] 

СтАсИкОс

Стаж: 6 лет 10 месяцев

Сообщений: 314

Симпатии: 20

jaska-3d, Попробуйте, когда указываете путь к вашему файлу, указать не сам файл
Zolushka.1950.RUS.BDRip.XviD.AC3.-HQCLUB.avi , а папку /Золушка
Пример: Предположим у вас следующая структура
../фильмы/Золушка/Zolushka.1950.RUS.BDRip.XviD.AC3.-HQCLUB.avi
Скачивайте торрент, и указывайте следующий путь ../фильмы

Создавать темы 11-Окт-2013 14:39

[Профиль]  [ЛС] 

victor0778

Стаж: 6 лет 9 месяцев

Сообщений: 1670

Симпатии: 142

jaska-3d, Вы создали тфайл с папки, так и указывайте директорию с папкой

Создавать темы 11-Окт-2013 16:27

[Профиль]  [ЛС] 

sanjar0049

Стаж: 5 лет 7 месяцев

Сообщений: 35

Симпатии: 1

ктонибудь смог чкачать этот мультик?отзовитесь пожалуйста!

Создавать темы 14-Окт-2013 15:25

[Профиль]  [ЛС] 

lampa50

Стаж: 4 года 6 месяцев

Сообщений: 16

sanjar0049,
Все висим в неведении и ждем, ждем, ждем........

Создавать темы 14-Окт-2013 19:12

[Профиль]  [ЛС] 

jaska-3d ®

Стаж: 5 лет 11 месяцев

Сообщений: 250

Симпатии: 25

ГОТОВО, приятного просмотра !!!

Создавать темы 15-Окт-2013 08:24

[Профиль]  [ЛС] 

sanjar0049

Стаж: 5 лет 7 месяцев

Сообщений: 35

Симпатии: 1

дайте скорость

Создавать темы 21-Окт-2013 10:51

[Профиль]  [ЛС] 

jaska-3d ®

Стаж: 5 лет 11 месяцев

Сообщений: 250

Симпатии: 25

sanjar0049,
Все висим в неведении и ждем, ждем, ждем........
Я на раздаче, буду до конца !

Создавать темы 24-Окт-2013 22:57

[Профиль]  [ЛС] 

sanjar0049

Стаж: 5 лет 7 месяцев

Сообщений: 35

Симпатии: 1

дайте докачать завис на 80%

Создавать темы 01-Ноя-2013 15:17

[Профиль]  [ЛС] 

Ирина

Стаж: 3 года 10 месяцев

Сообщений: 57

Симпатии: 11

Что может быть лучше старых добрых мультиков. Надеюсь внуку понравится. Спасибо.

Создавать темы 17-Дек-2014 21:36

[Профиль]  [ЛС] 
Показать сообщения:    
Ответить на тему

Текущее время: 23-Ноя 00:59

Часовой пояс: UTC + 5



Вы не можете начинать темы
Вы не можете отвечать на сообщения
Вы не можете редактировать свои сообщения
Вы не можете удалять свои сообщения
Вы не можете голосовать в опросах
Вы не можете прикреплять файлы к сообщениям
Вы не можете скачивать файлы