Трансформеры. Прайм Звериные Охотники: Восстание Предаконов / Transformers. Prime Beast Hunters: Predacons Rising (2013) HDRip

Ответить на тему
 

ruslan08 ®

Стаж: 5 лет 7 месяцев

Сообщений: 73

Симпатии: 7

Прайм Звериные Охотники: Восстание ПредаконовTransformers Prime Beast Hunters: Predacons Rising (2013) HDRip- Год выпуска: 2013
Производство: США | Hasbro Studios
Жанр: Мультфильм, Фантастика, Боевик, Приключения
Продолжительность: 01:05:49
Перевод: Многоголосый закадровый, любительский ("NewRecords")
Субтитры: Отсутствуют-Дата мировой премьеры: Октябрь 2013 (США)-Режиссер: Давид Хартман-Актеры: Питер Каллен, Фрэнк Уэлкер, Стивен Блум, Джеффри Комбс, Уилл Фридел, Джеймс Хоран, Майкл Айронсайд, Питер Менса, Сумали Монтано, Джон Ноубл ...-Описание:
Хроники эпической битвы между десептиконами и автоботами, которые защищатют Землю и пытаются восстановить свою родную планету Кибертрон-Качество видео: HDRip
Формат: AVI
Видеокодек: XVID
Аудиокодек: AC3
Битрейт видео: ~ 1283 Кбит/сек
Размер кадра: 688 x 384
Аудио: AC3, 2ch, 192 Кбит/сек

MediaInfo:

Формат : AVI
Формат/Информация : Audio Video Interleave
Размер файла : 699 Мбайт
Продолжительность : 1 ч. 5 м.
Общий поток : 1485 Кбит/сек
Программа кодирования : VirtualDubMod 1.5.10.3 | www.virtualdub-fr.org || (build 2550/release)
Библиотека кодирования : VirtualDubMod build 2550/release
Видео
Идентификатор : 0
Формат : MPEG-4 Visual
Профиль формата : Advanced [email protected]
Параметр BVOP формата : 1
Параметр QPel формата : Нет
Параметр GMC формата : Без точки перехода
Параметр матрицы формата : Default (H.263)
Идентификатор кодека : XVID
Идентификатор кодека/Подсказка : XviD
Продолжительность : 1 ч. 5 м.
Битрейт : 1283 Кбит/сек
Ширина : 688 пикселей
Высота : 384 пикселя
Соотношение сторон : 16:9
Частота кадров : 23,976 кадра/сек
Цветовое пространство : YUV
Субдискретизация насыщенности : 4:2:0
Битовая глубина : 8 бит
Тип развёртки : Прогрессивная
Метод сжатия : С потерями
Бит/(Пиксели*Кадры) : 0.203
Размер потока : 604 Мбайт (86%)
Библиотека кодирования : XviD 1.2.1 (UTC 2008-12-04)
Аудио
Идентификатор : 1
Формат : AC-3
Формат/Информация : Audio Coding 3
Расширение режима : CM (complete main)
Параметр Endianness формата : Big
Идентификатор кодека : 2000
Продолжительность : 1 ч. 5 м.
Вид битрейта : Постоянный
Битрейт : 192 Кбит/сек
Каналы : 2 канала
Расположение каналов : Front: L R
Частота : 48,0 КГц
Битовая глубина : 16 бит
Метод сжатия : С потерями
Размер потока : 90,4 Мбайт (13%)
Выравнивание : Разделение по промежуткам
Продолжительность промежутка : 42 мс. (1,00 видеокадр)
Время предзагрузки промежутка : 500 мс.

Скриншоты



Последний раз редактировалось: ruslan08 (2013-10-10 09:44), всего редактировалось 1 раз

Создавать темы 10-Окт-2013 09:15

[Профиль]  [ЛС] 

Felinn1

Стаж: 6 лет 1 месяц

Сообщений: 37

Симпатии: 1

Интересно. Уже полнометражный мульт есть.

Создавать темы 10-Окт-2013 09:50

[Профиль]  [ЛС] 

Kurban

Стаж: 5 лет 5 месяцев

Сообщений: 61

Симпатии: 5

О спасибо большое) А то братишка уже весь траффик на эти Трансформеры спустил XD

Создавать темы 10-Окт-2013 18:08

[Профиль]  [ЛС] 

Sanjarbek8585

Стаж: 3 года 8 месяцев

Сообщений: 8

Симпатии: 1

раздайте спс

Создавать темы 19-Фев-2014 23:47

[Профиль]  [ЛС] 
Показать сообщения:    
Ответить на тему

Текущее время: 24-Авг 02:18

Часовой пояс: UTC + 5



Вы не можете начинать темы
Вы не можете отвечать на сообщения
Вы не можете редактировать свои сообщения
Вы не можете удалять свои сообщения
Вы не можете голосовать в опросах
Вы не можете прикреплять файлы к сообщениям
Вы не можете скачивать файлы