Кадры / The Internship (Шон Леви) [2013 г., комедия, HDRip] [Лицензия]

Страницы :  1, 2, 3, 4  След.

Ответить на тему
 

igor1968 ®

Стаж: 5 лет 9 месяцев

Сообщений: 366

Симпатии: 197

Кадры / The Internship«Решают всё» Год выпуска: 2013
Страна:
Жанр: комедия, ...
Продолжительность: 02:05:01.410
Перевод: Профессиональный (полное дублирование) [Лицензия]
Режиссер: Шон Леви
В ролях: Винс Вон, Оуэн Уилсон, Роуз Бирн, Макс Мингелла, Аасиф Мандви, Джош Бренер, Дилан О’Брайэн, Тия Сиркар, Тобит Рафаэль, Джош Гад ...
Роли дублировали: Пётр Иващенко, Илья Бледный, Даниил Эльдаров, Прохор Чеховской, Василиса Эльдарова ...
Билли и Ник всю жизнь занимаются продажами. Но новый компьютерный мир рушит их карьеру. Стараясь доказать, что они не отстали от жизни, они бросают вызов судьбе, получив желанную стажировку в компании Google вместе с командой лучших студентов колледжей. Но получить доступ в этот фантастический мир — это только половина дела. Сейчас им придется выдержать конкуренцию с самыми лучшими техническими гениями, чтобы доказать, что необходимость — это мать обновления.- -премьера
5 июня 2013, ...
премьера
12 июня 2013, «Двадцатый Век Фокс СНГ»
релиз на DVD
14 ноября 2013, «Двадцатый Век Фокс СНГ», ...
релиз на Blu-Ray
14 ноября 2013, «Двадцатый Век Фокс СНГ», ...
Качество: HDRip
Формат: AVI
Видео кодек: XviD
Аудио кодек: AC3
Видео: 720x304 (2.37:1), 23.976 fps, XviD build 50 ~1894 kbps avg, 0.36 bit/pixel
Аудио: 48 kHz, AC3 Dolby Digital, 3/2 (L,C,R,l,r) + LFE ch, ~448.00 kbps avg-

MediaInfo

General
Complete name : The.Internship.2013.D.HDRip.2100Mb.UNRATED.avi
Format : AVI
Format/Info : Audio Video Interleave
Format profile : OpenDML
File size : 2.05 GiB
Duration : 2h 5mn
Overall bit rate : 2 349 Kbps
Writing application : VirtualDubMod 1.5.10.2 (build 2540/release)
Writing library : VirtualDubMod build 2540/release
Video
ID : 0
Format : MPEG-4 Visual
Format profile : Advanced [email protected]
Format settings, BVOP : 2
Format settings, QPel : No
Format settings, GMC : No warppoints
Format settings, Matrix : Custom
Codec ID : XVID
Codec ID/Hint : XviD
Duration : 2h 5mn
Bit rate : 1 889 Kbps
Width : 720 pixels
Height : 304 pixels
Display aspect ratio : 2.35:1
Frame rate : 23.976 fps
Color space : YUV
Chroma subsampling : 4:2:0
Bit depth : 8 bits
Scan type : Progressive
Compression mode : Lossy
Bits/(Pixel*Frame) : 0.360
Stream size : 1.65 GiB (80%)
Writing library : XviD 1.2.1 (UTC 2008-12-04)
Audio
ID : 1
Format : AC-3
Format/Info : Audio Coding 3
Mode extension : CM (complete main)
Format settings, Endianness : Big
Codec ID : 2000
Duration : 2h 5mn
Bit rate mode : Constant
Bit rate : 448 Kbps
Channel(s) : 6 channels
Channel positions : Front: L C R, Side: L R, LFE
Sampling rate : 48.0 KHz
Bit depth : 16 bits
Compression mode : Lossy
Stream size : 401 MiB (19%)
Alignment : Split accross interleaves
Interleave, duration : 42 ms (1.00 video frame)
Interleave, preload duration : 500 ms
-

Скриншоты

- - -


Последний раз редактировалось: igor1968 (2013-11-11 08:17), всего редактировалось 4 раз(а)

Создавать темы 11-Окт-2013 11:01

[Профиль]  [ЛС] 

Kodir

Стаж: 5 лет 8 месяцев

Сообщений: 8

я первый

Создавать темы 11-Окт-2013 11:03

[Профиль]  [ЛС] 

SNIL

Стаж: 5 лет 11 месяцев

Сообщений: 2624

Симпатии: 341

звук чистый?

Создавать темы 11-Окт-2013 11:23

[Профиль]  [ЛС] 

СтАсИкОс

Стаж: 6 лет 11 месяцев

Сообщений: 314

Симпатии: 20

SNIL, Это лицензия

Создавать темы 11-Окт-2013 11:27

[Профиль]  [ЛС] 

СтАсИкОс

Стаж: 6 лет 11 месяцев

Сообщений: 314

Симпатии: 20

помогаю с раздачей

Создавать темы 11-Окт-2013 12:42

[Профиль]  [ЛС] 

igor1968 ®

Стаж: 5 лет 9 месяцев

Сообщений: 366

Симпатии: 197

помогаю с раздачей
СПАСИБО!!!

Создавать темы 11-Окт-2013 15:21

[Профиль]  [ЛС] 

тролль

Стаж: 4 года 5 месяцев

Сообщений: 49

Симпатии: 2

эть как ?
релиз на DVD
14 ноября 2013, «Двадцатый Век Фокс СНГ», ...

Создавать темы 11-Окт-2013 18:03

[Профиль]  [ЛС] 

Bars300

Стаж: 4 года 11 месяцев

Сообщений: 49

Симпатии: 3

как фильм?

Создавать темы 11-Окт-2013 20:24

[Профиль]  [ЛС] 

igor1968 ®

Стаж: 5 лет 9 месяцев

Сообщений: 366

Симпатии: 197

эть как ?
релиз на DVD
14 ноября 2013, «Двадцатый Век Фокс СНГ», ...
Это кино поиск!

Создавать темы 11-Окт-2013 21:23

[Профиль]  [ЛС] 

edik_123

Стаж: 7 лет 1 месяц

Сообщений: 14

спасибо чувак долго ждал этот фильм

Создавать темы 11-Окт-2013 22:01

[Профиль]  [ЛС] 

vampire

Стаж: 4 года 2 месяца

Сообщений: 14

Симпатии: 1

так как фильмец?? стоит качать??

Создавать темы 11-Окт-2013 22:20

[Профиль]  [ЛС] 

Alex9755

Стаж: 6 лет 9 месяцев

Сообщений: 26

сидыыы. помогите на ночь раздачу поставьте.
Надеюсь фильм на четверку.

Создавать темы 12-Окт-2013 00:29

[Профиль]  [ЛС] 

тролль

Стаж: 4 года 5 месяцев

Сообщений: 49

Симпатии: 2

эть как ?
релиз на DVD
14 ноября 2013, «Двадцатый Век Фокс СНГ», ...
Это кино поиск!
спасибо кэп

Создавать темы 13-Окт-2013 04:26

[Профиль]  [ЛС] 

outoforder

Стаж: 5 лет

Сообщений: 812

Симпатии: 172

так как фильмец?? стоит качать??
посмотреть можно, впринципе неплохой

Создавать темы 13-Окт-2013 11:13

[Профиль]  [ЛС] 

TIM_MITCH

Стаж: 5 лет 7 месяцев

Сообщений: 16

Фильм нормальный, посмотреть стоит!

Создавать темы 14-Окт-2013 20:26

[Профиль]  [ЛС] 
Показать сообщения:    
Ответить на тему

Текущее время: 11-Дек 05:19

Часовой пояс: UTC + 5



Вы не можете начинать темы
Вы не можете отвечать на сообщения
Вы не можете редактировать свои сообщения
Вы не можете удалять свои сообщения
Вы не можете голосовать в опросах
Вы не можете прикреплять файлы к сообщениям
Вы не можете скачивать файлы