Стрела / Arrow / Сезон 2, серия 1-23 (23) (Дэвид Баррет, Дэвид Наттер) [2013 г., фантастика, боевик, драма, детектив, приключения, WEB-DLRip] MVO LostFilm

Страницы :  1, 2, 3 ... 10, 11, 12  След.

Ответить на тему
 

emilsky ®

Стаж: 7 лет 5 месяцев

Сообщений: 2237

Симпатии: 610

Стрела / Arrow Год выпуска: 2013
Страна: США
Жанр: фантастика, боевик, драма, детектив, приключения
Продолжительность: 00:42:00
Перевод: Профессиональный (многоголосый, закадровый) LostFilm
Режиссер: Дэвид Баррет, Дэвид Наттер
В ролях: Стивен Амелл, Эмили Бетт Рикардс, Кэти Кэссиди, Уилла Холлэнд, Джейми Шеридан, Жаклин МакИннес Вуд, Колин Сэлмон, Кэтлин Гати, Пол Блекторн, Сюзанна Томпсон
Описание: После масштабных разрушений в Старлинг-сити Оливер Куин вновь уезжает на остров. Его мать в тюрьме, компания на грани поглощения и уничтожения. А в городе орудует банда "капюшонов", расстреливающая финансистов и представителей власти. Диг и Фелисити летят на остров и возвращают Оливера домой. "Капюшон" снова берется за лук и стрелы...
Качество: WEB-DLRip
Формат: AVI
Видео кодек: XVID
Аудио кодек: MP3
Видео: 720x400, 1 683 Кбит/сек 23,976 кадра/сек
Аудио 1: 2 канала, 48,0 КГц 192 Кбит/сек

MI

E:\Serials\Arrow.S02E01.rus.LostFilm.TV.avi
General
Complete name : E:\Инструкции по перечню\Временно\Serials\Arrow.S02E01.rus.LostFilm.TV.avi
Format : AVI
Format/Info : Audio Video Interleave
File size : 597 MiB
Duration : 42mn 33s
Overall bit rate : 1 962 Kbps
Writing application : Nandub v1.0rc2
Writing library : Nandub build 1853/release
Video #0
ID : 0
Format : MPEG-4 Visual
Format profile : [email protected]
Format settings, BVOP : 1
Format settings, QPel : No
Format settings, GMC : No warppoints
Format settings, Matrix : Default (H.263)
Muxing mode : Packed bitstream
Codec ID : XVID
Codec ID/Hint : XviD
Duration : 42mn 33s
Bit rate : 1 683 Kbps
Width : 720 pixels
Height : 400 pixels
Display aspect ratio : 16:9
Frame rate : 23.976 fps
Color space : YUV
Chroma subsampling : 4:2:0
Bit depth : 8 bits
Scan type : Progressive
Compression mode : Lossy
Bits/(Pixel*Frame) : 0.244
Stream size : 512 MiB (86%)
Writing library : XviD 1.2.1 (UTC 2008-12-04)
Audio #1
ID : 1
Format : MPEG Audio
Format version : Version 1
Format profile : Layer 3
Mode : Joint stereo
Mode extension : MS Stereo
Codec ID : 55
Codec ID/Hint : MP3
Duration : 42mn 33s
Bit rate mode : Variable
Bit rate : 192 Kbps
Channel(s) : 2 channels
Sampling rate : 48.0 KHz
Compression mode : Lossy
Stream size : 58.4 MiB (10%)
Alignment : Aligned on interleaves
Writing library : LAME3.97b
Encoding settings : -m j -V 4 -q 3 -lowpass 18.6 --abr 192

Список серий


01 Город героев (City of Heroes)
02 Найти себя (Identity)
03 Сломанные куклы (Broken Dolls)
04 Тяжёлое испытание (Crucible)
05 Лига убийц (League of Assassins)
06 Держи врагов ближе (Keep Your Enemies Closer)
07 Штат против Куинн (State vs Queen)
08 Учёный (The Scientist)
09 Три призрака (Three Ghosts)
10 Радиус поражения (Blast Radius)
11 Слепая зона (Blind Spot)
12 Волнения (Tremors)
13 Наследница демона (Heir to the Demon)
14 Время смерти (Time of Death)
15 The Promise
16 Suicide Squad
17 Birds of Prey
18 Deathstroke-



Последний раз редактировалось: emilsky (2014-05-17 06:56), всего редактировалось 33 раз(а)

Создавать темы 11-Окт-2013 21:36

[Профиль]  [ЛС] 

emilsky ®

Стаж: 7 лет 5 месяцев

Сообщений: 2237

Симпатии: 610

Собственно озвучка от Лоста

Создавать темы 11-Окт-2013 21:38

[Профиль]  [ЛС] 

MiamiBoy

Стаж: 6 лет 7 месяцев

Сообщений: 136

Симпатии: 7

спасибо за LOST

Создавать темы 11-Окт-2013 21:38

[Профиль]  [ЛС] 

temurid

Стаж: 5 лет 8 месяцев

Сообщений: 60

Симпатии: 1

урррреее спасибо emilsky, давно ждали!! Распишите график плиззз cb
Конкретно народа много будет))))

Создавать темы 11-Окт-2013 21:52

[Профиль]  [ЛС] 

emilsky ®

Стаж: 7 лет 5 месяцев

Сообщений: 2237

Симпатии: 610

урррреее спасибо emilsky, давно ждали!! Распишите график плиззз cb
Конкретно народа много будет))))
всё будет, позже
канал открою попозже, нужно ещё один сегодняшний релиз дораздать

Создавать темы 11-Окт-2013 21:55

[Профиль]  [ЛС] 

kamina_r.m

Стаж: 5 лет 10 месяцев

Сообщений: 29

Симпатии: 2

emilsky, спс за релиз.

Создавать темы 11-Окт-2013 22:58

[Профиль]  [ЛС] 

Hasanbek

Стаж: 6 лет 7 месяцев

Сообщений: 161

Симпатии: 6

Хороший сериал, всем советую посмотреть. te

Создавать темы 11-Окт-2013 23:14

[Профиль]  [ЛС] 

baxa84

Стаж: 5 лет 9 месяцев

Сообщений: 47

emilsky, спс за релиз.

Создавать темы 12-Окт-2013 13:56

[Профиль]  [ЛС] 

Kondor_1995

Стаж: 5 лет 5 месяцев

Сообщений: 65

Симпатии: 4

Спасибо emilsky, ...как всегда на высоте)

Создавать темы 12-Окт-2013 19:21

[Профиль]  [ЛС] 

fara1292

Стаж: 5 лет 3 месяца

Сообщений: 97

Симпатии: 12

Спасибоemilsky, !!!! так ждалл

Создавать темы 12-Окт-2013 22:04

[Профиль]  [ЛС] 

emilsky ®

Стаж: 7 лет 5 месяцев

Сообщений: 2237

Симпатии: 610

повесил график

Создавать темы 13-Окт-2013 11:46

[Профиль]  [ЛС] 

Aleksandr13

Стаж: 7 лет 2 месяца

Сообщений: 52

Симпатии: 1

жаль на трекере нет фичи, чтобы можно было подписаться на уведомление о выходе ожидаемых релизов ))))

Создавать темы 13-Окт-2013 17:48

[Профиль]  [ЛС] 

Aleksandr13

Стаж: 7 лет 2 месяца

Сообщений: 52

Симпатии: 1

emilsky, респект !!!!!

Создавать темы 13-Окт-2013 17:48

[Профиль]  [ЛС] 

Bobur4ik

Стаж: 5 лет 11 месяцев

Сообщений: 57

спасибо огромное ... я так ждаллллл ))

Создавать темы 13-Окт-2013 18:44

[Профиль]  [ЛС] 

kamina_r.m

Стаж: 5 лет 10 месяцев

Сообщений: 29

Симпатии: 2

bw сегодня 17, а когда новый серия ???

Создавать темы 17-Окт-2013 20:27

[Профиль]  [ЛС] 
Показать сообщения:    
Ответить на тему

Текущее время: 16-Дек 08:34

Часовой пояс: UTC + 5



Вы не можете начинать темы
Вы не можете отвечать на сообщения
Вы не можете редактировать свои сообщения
Вы не можете удалять свои сообщения
Вы не можете голосовать в опросах
Вы не можете прикреплять файлы к сообщениям
Вы не можете скачивать файлы