Университет монстров / Monsters University (Дэн Скэнлон / Dan Scanlon) [2013, мультфильм, фэнтези, комедия, приключения, семейны, HDRip] MVO

Страницы :  1, 2  След.

Ответить на тему
 

Suxrob89 ®

Стаж: 7 лет 4 месяца

Сообщений: 933

Симпатии: 564

-Университет монстров / Monsters University-«Самый страшный универ в мире»- Год выпуска: 2013
Страна: США / Pixar Animation Studios, Walt Disney Pictures
Жанр: мультфильм, фэнтези, комедия, приключения, семейный
Рейтинг MPAA: Нет возрастных ограничений
Продолжительность: 01:43:47
Перевод: Профессиональный (многоголосый закадровый)
Русские субтитры: нет-Режиссёр: Дэн Скэнлон / Dan Scanlon
Роли озвучивали: Джон Гудман, Билли Кристал, Стив Бушеми, Хелен Миррен, Питер Сон, Джоэль Мюррей, Шон Хейс, Дэйв Фоли, Чарли Дэй, Альфред Молина-Описание: Майк и Салли — самые опытные пугатели в Монстрополисе, но так было далеко не всегда. Когда они встретились впервые, эти совершенно непохожие друг на друга монстры терпеть друг друга не могли. «Университет Монстров» — история о том, как наши старые знакомые прошли путь от взаимной неприязни к крепкой дружбе.- -Качество: HDRip[Рип с BDRip 720p]
Формат: AVI
Видео: XviD, 1491 kb/s, 720x400, 23,976 кадр/сек
Аудио: AC3, 384 kb/s (6 ch), 48,0 КГц
Субтитры: отсутствуют

MediaInfo

D:\Unoversitet.monstrov.2013.P.HDRip.1400Mb.avi
General
Complete name : D:\Unoversitet.monstrov.2013.P.HDRip.1400Mb.avi
Format : AVI
Format/Info : Audio Video Interleave
File size : 1.37 GiB
Duration : 1h 43mn
Overall bit rate : 1 885 Kbps
Movie name : Unoversitet.monstrov.2013.P.HDRip.1400Mb.INTERCINEMA
Director : INTERCINEMA
Writing application : VirtualDubMod 1.5.10.2 (build 2540/release)
Copyright : http://intercinema.net
Video #0
ID : 0
Format : MPEG-4 Visual
Format profile : Advanced [email protected]
Format settings, BVOP : 2
Format settings, QPel : No
Format settings, GMC : No warppoints
Format settings, Matrix : Custom
Codec ID : XVID
Codec ID/Hint : XviD
Duration : 1h 43mn
Bit rate : 1 491 Kbps
Width : 720 pixels
Height : 400 pixels
Display aspect ratio : 16:9
Frame rate : 23.976 fps
Color space : YUV
Chroma subsampling : 4:2:0
Bit depth : 8 bits
Scan type : Progressive
Compression mode : Lossy
Bits/(Pixel*Frame) : 0.216
Stream size : 1.08 GiB (79%)
Writing library : XviD 1.2.1 (UTC 2008-12-04)
Audio #1
ID : 1
Format : AC-3
Format/Info : Audio Coding 3
Mode extension : CM (complete main)
Format settings, Endianness : Big
Codec ID : 2000
Duration : 1h 43mn
Bit rate mode : Constant
Bit rate : 384 Kbps
Channel(s) : 6 channels
Channel positions : Front: L C R, Side: L R, LFE
Sampling rate : 48.0 KHz
Bit depth : 16 bits
Compression mode : Lossy
Stream size : 285 MiB (20%)
Alignment : Split accross interleaves
Interleave, duration : 42 ms (1.00 video frame)
Interleave, preload duration : 500 ms

Скриншоты



Последний раз редактировалось: Suxrob89 (2017-02-23 12:20), всего редактировалось 2 раз(а)

Создавать темы 12-Окт-2013 06:21

[Профиль]  [ЛС] 

temurid

Стаж: 5 лет 8 месяцев

Сообщений: 60

Симпатии: 1

давно ждал спасибо!!

Создавать темы 12-Окт-2013 07:04

[Профиль]  [ЛС] 

тролль

Стаж: 4 года 5 месяцев

Сообщений: 49

Симпатии: 2

MVO
что это такое?

Создавать темы 12-Окт-2013 09:06

[Профиль]  [ЛС] 

Nemo

Стаж: 6 лет 11 месяцев

Сообщений: 74

Симпатии: 4

тролль, многоголосый закадровый, наверно

Создавать темы 12-Окт-2013 10:33

[Профиль]  [ЛС] 

StaFF

Стаж: 4 года 7 месяцев

Сообщений: 41

Спасибо уж больно долго ждал ) pc

Создавать темы 12-Окт-2013 14:04

[Профиль]  [ЛС] 

kurt666

Стаж: 5 лет 1 месяц

Сообщений: 20

Симпатии: 1

значит не
лицензия

Создавать темы 12-Окт-2013 14:43

[Профиль]  [ЛС] 

Hybrid Theory

Стаж: 7 лет

Сообщений: 27

Симпатии: 3

MVO
что это такое?
VO (от англ. VoiceOver) — в фильме имеет место закадровый одноголосый перевод.
AVO (Author VoiceOver) - авторский закадровый перевод, в отличие от предыдущего варианта обозначения акцентируется, что текст начитывает сам автор перевода
DVO (от англ. Dual VoiceOver) — в фильме имеет место закадровый двухголосый перевод.
MVO (от англ. Multi VoiceOver) — в фильме имеет место закадровый многоголосый перевод.
Dub (Dubbing) - фильм полностью дублирован, т.е. осуществляется полная замена иностранной речи актёров на другой язык с целью последующей трансляции этого произведения в странах.

Создавать темы 12-Окт-2013 15:25

[Профиль]  [ЛС] 

farrux_b

Стаж: 5 лет 9 месяцев

Сообщений: 26

Симпатии: 5

А звук точно не c TS ?

Создавать темы 12-Окт-2013 15:53

[Профиль]  [ЛС] 

Monroe

Стаж: 4 года 6 месяцев

Сообщений: 220

Симпатии: 62

значит не
лицензия
+ Не лицензия?

Создавать темы 12-Окт-2013 17:22

[Профиль]  [ЛС] 

4650656

Стаж: 5 лет 10 месяцев

Сообщений: 5

Симпатии: 1

kaschestva kakaya??????

Создавать темы 12-Окт-2013 18:55

[Профиль]  [ЛС] 

forgoth

Стаж: 4 года 9 месяцев

Сообщений: 4

верьте други, этот человек туфту не выкладывает!

Создавать темы 12-Окт-2013 20:21

[Профиль]  [ЛС] 

Whitejin

Стаж: 6 лет 8 месяцев

Сообщений: 175

Симпатии: 11

спасибо... , это скорее всего чистый звук.

Создавать темы 12-Окт-2013 20:33

[Профиль]  [ЛС] 

StaFF

Стаж: 4 года 7 месяцев

Сообщений: 41

Останусь сегодня на всю ночь на раздаче :) что бы все смогли скачать )
Отдача максимум 820 Kb/s
P.s Звук Отличный !

Создавать темы 12-Окт-2013 21:00

[Профиль]  [ЛС] 

Hybrid Theory

Стаж: 7 лет

Сообщений: 27

Симпатии: 3

P.s Звук Отличный !
+Звук Отличный !

Создавать темы 13-Окт-2013 11:02

[Профиль]  [ЛС] 

timmm

Стаж: 5 лет 11 месяцев

Сообщений: 12

Симпатии: 4

звук хороший, но перевод, не смотря на то что многоголосый - не лицензионный. голоса другие.

Создавать темы 16-Окт-2013 20:47

[Профиль]  [ЛС] 
Показать сообщения:    
Ответить на тему

Текущее время: 14-Дек 11:31

Часовой пояс: UTC + 5



Вы не можете начинать темы
Вы не можете отвечать на сообщения
Вы не можете редактировать свои сообщения
Вы не можете удалять свои сообщения
Вы не можете голосовать в опросах
Вы не можете прикреплять файлы к сообщениям
Вы не можете скачивать файлы