Жертвенный Лик / Jug Face (Чад Кинкли / Chad Kinkle) [2013, США, ужасы, триллер, драма, WEB-DLRip] DVO + Original Eng

Ответить на тему
 

Suxrob89 ®

Стаж: 7 лет 2 месяца

Сообщений: 933

Симпатии: 564

-Жертвенный Лик / Jug Face-«The Pit Wants What It Wants»- Страна: США
Жанр: ужасы, триллер, драма
Год выпуска: 2013
Продолжительность: 01:21:19
Перевод: Любительский (двухголосый закадровый) [DeadSno] & [den904]
Cубтитры: нет
Оригинальная аудиодорожка: английский-Режиссер: Чад Кинкли / Chad Kinkle-В ролях: Шон Бриджерс, Лорен Эшли Картер, Кэйтлин Каллам, Ларри Фесенден, Дэвид Грейтхаус, Кэти Гросхонг, Скотт Ходжес, Дэниэл Манче-Описание: История о забеременевшей от своего брата девушке, которая пытается сбежать из лесной общины узнав, что ей необходимо принести себя в жертву существу из ямы.- -Качество видео: WEB-DLRip
Формат видео: AVI
Видео: XviD, 720x304 (2,35:1), 23.9 fps, ~2046 kbps avg, 0.39 bit/pixel
Аудио: 48 kHz, AC3 Dolby Digital, 2 ch, ~192 kbps Ru
Аудио 2: 48 kHz, AC3 Dolby Digital, 2 ch, ~224 kbps En

MediaInfo

Общее
Полное имя : E:\Jug.Face.2013.avi
Формат : AVI
Формат/Информация : Audio Video Interleave
Размер файла : 1,41 Гбайт
Продолжительность : 1 ч. 21 м.
Общий поток : 2476 Кбит/сек
Программа кодирования : VirtualDubMod 1.5.10.3 | www.virtualdub-fr.org || (build 2550/release)
Библиотека кодирования : VirtualDubMod build 2550/release
Видео
Идентификатор : 0
Формат : MPEG-4 Visual
Профиль формата : Advanced [email protected]
Параметр BVOP формата : 2
Параметр QPel формата : Нет
Параметр GMC формата : Без точки перехода
Параметр матрицы формата : Default (H.263)
Идентификатор кодека : XVID
Идентификатор кодека/Подсказка : XviD
Продолжительность : 1 ч. 21 м.
Битрейт : 2046 Кбит/сек
Ширина : 720 пикселей
Высота : 304 пикселя
Соотношение сторон : 2,35:1
Частота кадров : 23,976 кадра/сек
Цветовое пространство : YUV
Субдискретизация насыщенности : 4:2:0
Битовая глубина : 8 бит
Тип развёртки : Прогрессивная
Метод сжатия : С потерями
Бит/(Пиксели*Кадры) : 0.390
Размер потока : 1,16 Гбайт (83%)
Библиотека кодирования : XviD 1.2.1 (UTC 2008-12-04)
Аудио #1
Идентификатор : 1
Формат : AC-3
Формат/Информация : Audio Coding 3
Расширение режима : CM (complete main)
Параметр Endianness формата : Big
Идентификатор кодека : 2000
Продолжительность : 1 ч. 21 м.
Вид битрейта : Постоянный
Битрейт : 192 Кбит/сек
Каналы : 2 канала
Расположение каналов : Front: L R
Частота : 48,0 КГц
Битовая глубина : 16 бит
Метод сжатия : С потерями
Размер потока : 112 Мбайт (8%)
Выравнивание : Разделение по промежуткам
Продолжительность промежутка : 42 мс. (1,00 видеокадр)
Время предзагрузки промежутка : 500 мс.
Аудио #2
Идентификатор : 2
Формат : AC-3
Формат/Информация : Audio Coding 3
Расширение режима : CM (complete main)
Параметр Endianness формата : Big
Идентификатор кодека : 2000
Продолжительность : 1 ч. 21 м.
Вид битрейта : Постоянный
Битрейт : 224 Кбит/сек
Каналы : 2 канала
Расположение каналов : Front: L R
Частота : 48,0 КГц
Битовая глубина : 16 бит
Метод сжатия : С потерями
Размер потока : 130 Мбайт (9%)
Выравнивание : Разделение по промежуткам
Продолжительность промежутка : 42 мс. (1,00 видеокадр)
Время предзагрузки промежутка : 500 мс.

Скриншоты

Создавать темы 13-Окт-2013 12:59

[Профиль]  [ЛС] 

asamatdinov

Стаж: 4 года 7 месяцев

Сообщений: 16

Кино как, норм или . . . .

Создавать темы 13-Окт-2013 14:06

[Профиль]  [ЛС] 

Sh0cky

Стаж: 5 лет 1 месяц

Сообщений: 74

Симпатии: 14

Инцест какой-то..

Создавать темы 13-Окт-2013 18:05

[Профиль]  [ЛС] 

Suxrob89 ®

Стаж: 7 лет 2 месяца

Сообщений: 933

Симпатии: 564

bobomurod1996, Ещё не успел увидеть

Создавать темы 13-Окт-2013 18:22

[Профиль]  [ЛС] 

Wasabik

Стаж: 6 лет 5 месяцев

Сообщений: 58

Симпатии: 1

модераторы вы вообще проверяете раздачи???? что за фигня* мат перемат???? у меня родители и дети смотрят телевизор!!! почему в раздачах не указывается что перевод матерный?? это не первый раз уже.. делайте что нибудь!!! или вам приятно когда при ваших родителях или детях кого то нах*й посылают???

Создавать темы 14-Окт-2013 23:10

[Профиль]  [ЛС] 

Robox

Стаж: 6 лет 7 месяцев

Сообщений: 72

Симпатии: 1

модераторы вы вообще проверяете раздачи???? что за фигня* мат перемат???? у меня родители и дети смотрят телевизор!!! почему в раздачах не указывается что перевод матерный?? это не первый раз уже.. делайте что нибудь!!! или вам приятно когда при ваших родителях или детях кого то нах*й посылают???
Мдэ ))) А ты что по скринам и по описанию не видишь чтоли что фильм содержит сцены порно и насилия.

Создавать темы 15-Окт-2013 01:09

[Профиль]  [ЛС] 

victor0778

Стаж: 6 лет 8 месяцев

Сообщений: 1670

Симпатии: 142

модераторы вы вообще проверяете раздачи???? что за фигня* мат перемат???? у меня родители и дети смотрят телевизор!!! почему в раздачах не указывается что перевод матерный?? это не первый раз уже.. делайте что нибудь!!! или вам приятно когда при ваших родителях или детях кого то нах*й посылают???
просто не качайте фильмы с любительским переводом, там почти всегда присутствует мат

Создавать темы 15-Окт-2013 07:04

[Профиль]  [ЛС] 

rims

Стаж: 4 года 7 месяцев

Сообщений: 5

Симпатии: 1

модераторы вы вообще проверяете раздачи???? что за фигня* мат перемат???? у меня родители и дети смотрят телевизор!!! почему в раздачах не указывается что перевод матерный?? это не первый раз уже.. делайте что нибудь!!! или вам приятно когда при ваших родителях или детях кого то нах*й посылают???
Возрастной рейтинг фильма легко в нете найти, но если у тебя дети подобные ужасы смотрят, то что им мат тогда? По твоему модеры должны все что сюда выкладывают пересматривать, переигрывать и переслушивать?

Создавать темы 15-Окт-2013 13:04

[Профиль]  [ЛС] 

david

Стаж: 7 лет 4 месяца

Сообщений: 467

Симпатии: 12

у меня родители и дети смотрят телевизор!!!
мдяя
я прежде чем что то показать племяшкам,сам смотрю,ОДИН!
голова то на плечах должна быть или нет ?

Создавать темы 17-Окт-2013 16:21

[Профиль]  [ЛС] 

Azizaaaaa

Стаж: 4 года 2 месяца

Сообщений: 55

Симпатии: 1

как фильм??????

Создавать темы 19-Окт-2013 20:06

[Профиль]  [ЛС] 

air6797

Стаж: 4 года 11 месяцев

Сообщений: 114

Симпатии: 1

модераторы вы вообще проверяете раздачи???? что за фигня* мат перемат???? у меня родители и дети смотрят телевизор!!! почему в раздачах не указывается что перевод матерный?? это не первый раз уже.. делайте что нибудь!!! или вам приятно когда при ваших родителях или детях кого то нах*й посылают???
Ты сперва смотры на жанр и читай описание !!!! Надо бить .....ом Чтоб всё из интернета с детмы смотреть

Создавать темы 19-Окт-2013 20:32

[Профиль]  [ЛС] 

[email protected]

Стаж: 6 лет 8 месяцев

Сообщений: 138

Симпатии: 10

Так не хочу фильм качать, ребят залейте скрин существа из ямы и я доволен))

Создавать темы 19-Окт-2013 20:34

[Профиль]  [ЛС] 

Wasabik

Стаж: 6 лет 5 месяцев

Сообщений: 58

Симпатии: 1

нет слов...

Создавать темы 24-Окт-2013 14:42

[Профиль]  [ЛС] 

Wasabik

Стаж: 6 лет 5 месяцев

Сообщений: 58

Симпатии: 1

прежде чем "умничать/цитировать" или делать выводы, читайте внимательней..
а Вы victor0778 вместо того чтобы сделать автору замечание, делаете замечание мне.

Создавать темы 24-Окт-2013 14:50

[Профиль]  [ЛС] 
Показать сообщения:    
Ответить на тему

Текущее время: 20-Окт 10:10

Часовой пояс: UTC + 5



Вы не можете начинать темы
Вы не можете отвечать на сообщения
Вы не можете редактировать свои сообщения
Вы не можете удалять свои сообщения
Вы не можете голосовать в опросах
Вы не можете прикреплять файлы к сообщениям
Вы не можете скачивать файлы