Бессмертные: Война миров / Immortel (ad vitam) (Энки Билал) [2004 г., фантастика, фэнтези, мелодрама, криминал, .., BDRip(AVC) MKV]

Ответить на тему
 

igor1968 ®

Стаж: 5 лет 7 месяцев

Сообщений: 366

Симпатии: 197

Бессмертные: Война миров / Immortel (ad vitam)
Год выпуска: 2004
Страна:
Жанр: фантастика, фэнтези, мелодрама, криминал, ..
Продолжительность: 1h 43mn
Перевод: Профессиональный (полное дублирование)
Режиссер: Энки Билал
В ролях: Линда Арди, Томас М. Поллард, Янн Коллетт, Шарлотта Рэмплинг, Томас Кретшманн, Фредерик Пьеро
Огромная пирамида появляется в небе над Нью-Йорком. Нет, это не пришельцы, это древние Боги решили вернуться в наш мир. Так было когда-то предначертано, и теперь Боги вновь пришли в наш мир, чтобы продолжить свой род. Ведь даже Боги смертны, они стареют очень медленно, но все же стареют. Чтобы продолжить свой род им нужно найти девушку, ту единственную, которая способна родить им наследника. Тех, кто осмелится встать на пути у воинственных Богов, ждет страшная участь. Фильм снят на основе всемирно известной серии комиксов.- -премьера
13 марта 2004, ...-премьера
13 мая 2004, «Централ Партнершип»-релиз на DVD
8 июля 2004, «CP-Digital», ...-Качество: BDRip
Формат: MKV
Видео кодек: H.264
Аудио кодек: AC3
Видео: MPEG-4 AVC, 2465 Кбит/с, 1024х560
Аудио1: Русский (АС3, 6 ch, 448 Кбит/с),
Аудио2: французский (АС3, 6 ch, 448 Кбит/с),
Аудио3: английский (АС3, 6 ch, 448 Кбит/с)-

MediaInfo

General
Unique ID : 253649769389219671560987927920531017684 (0xBED32B2B081CEFB2BFCACD7FD2110FD4)
Complete name : Bessmertnye.Voyna.mirov.2004.x264.BDRip.(AVC).ExKinoRay.mkv
Format : Matroska
Format version : Version 1
File size : 2.75 GiB
Duration : 1h 43mn
Overall bit rate : 3 812 Kbps
Encoded date : UTC 2012-10-21 05:32:06
Writing application : mkvmerge v2.1.0 ('Another Place To Fall') built on Aug 19 2007 13:40:07
Writing library : libebml v0.7.7 + libmatroska v0.8.1
Video
ID : 1
Format : AVC
Format/Info : Advanced Video Codec
Format profile : [email protected]
Format settings, CABAC : Yes
Format settings, ReFrames : 8 frames
Codec ID : V_MPEG4/ISO/AVC
Duration : 1h 43mn
Bit rate : 2 465 Kbps
Width : 1 024 pixels
Height : 560 pixels
Display aspect ratio : 1.85:1
Frame rate : 24.000 fps
Color space : YUV
Chroma subsampling : 4:2:0
Bit depth : 8 bits
Scan type : Progressive
Bits/(Pixel*Frame) : 0.179
Stream size : 1.72 GiB (63%)
Writing library : x264 core 115 r1937 aa21558
Encoding settings : cabac=1 / ref=8 / deblock=1:-2:-2 / analyse=0x3:0x113 / me=umh / subme=8 / psy=1 / psy_rd=1.00:0.10 / mixed_ref=0 / me_range=32 / chroma_me=1 / trellis=2 / 8x8dct=1 / cqm=0 / deadzone=21,11 / fast_pskip=1 / chroma_qp_offset=-3 / threads=6 / sliced_threads=0 / nr=0 / decimate=1 / interlaced=0 / bluray_compat=0 / constrained_intra=0 / bframes=8 / b_pyramid=2 / b_adapt=2 / b_bias=0 / direct=3 / weightb=1 / open_gop=0 / weightp=0 / keyint=250 / keyint_min=23 / scenecut=40 / intra_refresh=0 / rc_lookahead=30 / rc=2pass / mbtree=1 / bitrate=2465 / ratetol=1.0 / qcomp=0.60 / qpmin=15 / qpmax=47 / qpstep=3 / cplxblur=20.0 / qblur=0.5 / ip_ratio=1.40 / aq=1:1.10
Language : English
Default : Yes
Forced : No
Audio #1
ID : 2
Format : AC-3
Format/Info : Audio Coding 3
Mode extension : CM (complete main)
Format settings, Endianness : Big
Codec ID : A_AC3
Duration : 1h 43mn
Bit rate mode : Constant
Bit rate : 448 Kbps
Channel(s) : 6 channels
Channel positions : Front: L C R, Side: L R, LFE
Sampling rate : 48.0 KHz
Bit depth : 16 bits
Compression mode : Lossy
Stream size : 330 MiB (12%)
Title : Дублированный
Language : Russian
Default : Yes
Forced : No
Audio #2
ID : 3
Format : AC-3
Format/Info : Audio Coding 3
Mode extension : CM (complete main)
Format settings, Endianness : Big
Codec ID : A_AC3
Duration : 1h 43mn
Bit rate mode : Constant
Bit rate : 448 Kbps
Channel(s) : 6 channels
Channel positions : Front: L C R, Side: L R, LFE
Sampling rate : 48.0 KHz
Bit depth : 16 bits
Compression mode : Lossy
Stream size : 330 MiB (12%)
Title : Оригинал
Language : French
Default : No
Forced : No
Audio #3
ID : 4
Format : AC-3
Format/Info : Audio Coding 3
Mode extension : CM (complete main)
Format settings, Endianness : Big
Codec ID : A_AC3
Duration : 1h 43mn
Bit rate mode : Constant
Bit rate : 448 Kbps
Channel(s) : 6 channels
Channel positions : Front: L C R, Side: L R, LFE
Sampling rate : 48.0 KHz
Bit depth : 16 bits
Compression mode : Lossy
Stream size : 330 MiB (12%)
Title : Оригинал
Language : English
Default : No
Forced : No
Text #1
ID : 5
Format : UTF-8
Codec ID : S_TEXT/UTF8
Codec ID/Info : UTF-8 Plain Text
Title : Русские
Language : Russian
Default : Yes
Forced : No
Text #2
ID : 6
Format : UTF-8
Codec ID : S_TEXT/UTF8
Codec ID/Info : UTF-8 Plain Text
Title : Английские
Language : English
Default : No
Forced : No
-

Скриншоты

-+Бонус клип на фильм
http://mover.uz/watch/stwlKJIj/- - -


Последний раз редактировалось: igor1968 (2013-10-14 09:01), всего редактировалось 6 раз(а)

Создавать темы 13-Окт-2013 17:08

[Профиль]  [ЛС] 

vanfank

Стаж: 4 года 5 месяцев

Сообщений: 141

Симпатии: 5

А Фильм есть?

Создавать темы 13-Окт-2013 17:31

[Профиль]  [ЛС] 

igor1968 ®

Стаж: 5 лет 7 месяцев

Сообщений: 366

Симпатии: 197

А Фильм есть?
А релиз зачем создавать? Если фильм не выкладывать.

Создавать темы 13-Окт-2013 17:58

[Профиль]  [ЛС] 

igor1968 ®

Стаж: 5 лет 7 месяцев

Сообщений: 366

Симпатии: 197

Пере залейте торрент . ( ПО тех. причине)

Создавать темы 14-Окт-2013 09:06

[Профиль]  [ЛС] 

Loky

Стаж: 4 года 3 месяца

Сообщений: 75

Симпатии: 8

модераторы проверьте пожалуйста быстрей!:)

Создавать темы 14-Окт-2013 09:43

[Профиль]  [ЛС] 

igor1968 ®

Стаж: 5 лет 7 месяцев

Сообщений: 366

Симпатии: 197

Скриншоты

Создавать темы 14-Окт-2013 09:51

[Профиль]  [ЛС] 
Показать сообщения:    
Ответить на тему

Текущее время: 21-Окт 00:56

Часовой пояс: UTC + 5



Вы не можете начинать темы
Вы не можете отвечать на сообщения
Вы не можете редактировать свои сообщения
Вы не можете удалять свои сообщения
Вы не можете голосовать в опросах
Вы не можете прикреплять файлы к сообщениям
Вы не можете скачивать файлы