+1 / +1 (Дэннис Илиадис) [2013 г, Фантастика, Триллер, WEB-DLRip][L1]

Ответить на тему
 

Suxrob89 ®

Стаж: 7 лет 4 месяца

Сообщений: 933

Симпатии: 564

-+1 / +1-«Этого хотят все»- Год выпуска: 2013
Производство: США / Process Films, Process Productions
Жанр: Фантастика, Триллер
Перевод: Одноголосый закадровый, любительский [VANO]
Субтитры: Отсутствуют
Продолжительность: 01:36:12-Дата мировой премьеры: 10 марта 2013
Дата российской премьеры: 17 октября 2013, «West»-Режиссер: Дэннис Илиадис
Продюсер: Тим Перелл, Гай Ботам, Бекки Глупчински
Актеры: Эшли Хиншоу, Риз Уэйкфилд, Натали Холл, Рода Гриффис, Логан Миллер, Марла Малкольм, Меган Хэйес, Ханна Касулка, Крисси Чэмберс, Кайт Джонсон-Описание фильма:
Трое друзей из колледжа отправляются на главную вечеринку десятилетия. Каждый ищет там что-то свое: любовь, секс или новые знакомства. Но праздник превращается в хаос, когда по соседству с домом, где все веселятся, падает метеорит.- -Качество видео: WEB-DLRip
Видеокодек: DivX
Аудиокодек: AC3
Видео: 720x304, 1649 kb/s, 23.98 fps
Аудио: AC3, 384 kb/s (6 ch), 48000 Hz-

Media info

F:\Plus.1.2013.L1.WEBDLRip.1400MB.avi
General
Complete name : F:\Plus.1.2013.L1.WEBDLRip.1400MB.avi
Format : AVI
Format/Info : Audio Video Interleave
File size : 1.37 GiB
Duration : 1h 36mn
Overall bit rate : 2 043 Kbps
Writing application : VirtualDubMod 1.5.10.2 (build 2540/release)
Writing library : VirtualDubMod build 2540/release
Video #0
ID : 0
Format : MPEG-4 Visual
Format profile : Advanced [email protected]
Format settings, BVOP : 1
Format settings, QPel : No
Format settings, GMC : No warppoints
Format settings, Matrix : Default (MPEG)
Codec ID : DX50
Codec ID/Hint : DivX 5
Duration : 1h 36mn
Bit rate : 1 650 Kbps
Width : 720 pixels
Height : 304 pixels
Display aspect ratio : 2.35:1
Frame rate : 23.976 fps
Color space : YUV
Chroma subsampling : 4:2:0
Bit depth : 8 bits
Scan type : Progressive
Compression mode : Lossy
Bits/(Pixel*Frame) : 0.314
Stream size : 1.11 GiB (81%)
Writing library : XviD 1.2.1 (UTC 2008-12-04)
Audio #1
ID : 1
Format : AC-3
Format/Info : Audio Coding 3
Mode extension : CM (complete main)
Format settings, Endianness : Big
Codec ID : 2000
Duration : 1h 36mn
Bit rate mode : Constant
Bit rate : 384 Kbps
Channel(s) : 6 channels
Channel positions : Front: L C R, Side: L R, LFE
Sampling rate : 48.0 KHz
Bit depth : 16 bits
Compression mode : Lossy
Stream size : 264 MiB (19%)
Alignment : Split accross interleaves
Interleave, duration : 42 ms (1.00 video frame)
Interleave, preload duration : 500 ms

Скриншоты

Создавать темы 14-Окт-2013 07:34

[Профиль]  [ЛС] 

pashu_uz

Стаж: 4 года 7 месяцев

Сообщений: 126

Симпатии: 25

перевод негодится, ждем дублированный

_________________
Подпись отключена за нарушение правил форума

Создавать темы 14-Окт-2013 13:19

[Профиль]  [ЛС] 

ulmas13

Стаж: 4 года 10 месяцев

Сообщений: 69

Симпатии: 14

админ манга дукманни куйиб беринг келган сериясидан.

Создавать темы 14-Окт-2013 19:23

[Профиль]  [ЛС] 

Emigrate

Стаж: 5 лет 11 месяцев

Сообщений: 110

Симпатии: 1

админ манга дукманни куйиб беринг келган сериясидан.
нельзя писать на уз языке

Создавать темы 14-Окт-2013 19:47

[Профиль]  [ЛС] 

dragoncha

Стаж: 5 лет 1 месяц

Сообщений: 6

Симпатии: 1

админ манга дукманни куйиб беринг келган сериясидан.
нельзя писать на уз языке
pochemu nelzya?

Создавать темы 14-Окт-2013 20:37

[Профиль]  [ЛС] 

Марсель(ЕВРО)

Стаж: 4 года 7 месяцев

Сообщений: 23

Симпатии: 1

кто тебе сказал?в чем дело
админ манга дукманни куйиб беринг келган сериясидан.
нельзя писать на уз языке
pochemu nelzya?
Читайте правила форума! Запрещается:
3.16. Использовать в общении на форуме язык, отличный от русского, и шрифт, отличный от кириллического (за исключением раздела Ўзбек тилида сўзлашувчилар учун). Модераторы и Администраторы имеют право редактировать или удалять сообщения, написанные на языке, отличном от русского, и шрифтом, отличным от кириллического, без предупреждения.

Создавать темы 14-Окт-2013 21:14

[Профиль]  [ЛС] 

Clever

Стаж: 5 лет 2 месяца

Сообщений: 31

как фильм люди отпишитесь , стоит ли качать

Создавать темы 15-Окт-2013 23:58

[Профиль]  [ЛС] 

Grock

Стаж: 6 лет 10 месяцев

Сообщений: 637

Симпатии: 113

Только что посмотрел данный фильм, необычно скажем так, вечеринки, пляски, обжималки и тут на тебе... zd
Хороший финал.. ab В общем можно посмотреть. Честно говоря, впервые смотрю фильм в переводе от VANO и скажу, ниче так переводит. Все понятно и ясно.

Создавать темы 16-Окт-2013 00:09

[Профиль]  [ЛС] 
Показать сообщения:    
Ответить на тему

Текущее время: 15-Дек 05:42

Часовой пояс: UTC + 5



Вы не можете начинать темы
Вы не можете отвечать на сообщения
Вы не можете редактировать свои сообщения
Вы не можете удалять свои сообщения
Вы не можете голосовать в опросах
Вы не можете прикреплять файлы к сообщениям
Вы не можете скачивать файлы