Земля из космоса / Earth From Space [2013, Документальный, HDTVRip 1080p] VO + Original

Ответить на тему
 

Gaius Marius ®

Стаж: 4 года 5 месяцев

Сообщений: 9

Симпатии: 1

Земля из космоса / Earth From Space
Год выпуска: 2013
Жанр: Документальный
Продолжительность: 01:51:49
Перевод: Одноголосый закадровый
Русские субтитры: нет-Описание:
Земля из космоса приглашает вас на эпические поиски обнаружения невидимых сил и процессов, которые поддерживают жизнь на нашей планете и впервые вы увидите их в действии в их естественной среде в ярких деталях. Эти поистине уникальные изображения будут изучать глубочайшие тайны существования, вызвав глубокие вопросы и сложные старые предположения о том, как работает система Земли.-Тип релиза: HDTVRip 1080p
Контейнер: MKV
Видео: Mpeg2 14100 Кбит/с, 1920x1080 29.97fps
Аудио: Русский AC3 2 ch 224 Кбит/с 48khz
Аудио 2: Aнглийский AC3 2 ch 384 Кбит/с 48khz-

Скриншоты


MI

General
Unique ID                      : 203066636378065292765659049008695268990 (0x98C536297E82FB64BE60A4A17A2ED67E)
Complete name                  : F:\Релизы\NOVA - Earth From Space.mkv
Format                         : Matroska
Format version                 : Version 4 / Version 2
File size                      : 11.8 GiB
Duration                       : 1h 52mn
Overall bit rate mode          : Variable
Overall bit rate               : 15.0 Mbps
Encoded date                   : UTC 2013-03-25 08:21:03
Writing application            : mkvmerge v6.1.0 ('Old Devil') built on Mar  2 2013 14:32:37
Writing library                : libebml v1.3.0 + libmatroska v1.4.0
Video
ID                             : 1
Format                         : MPEG Video
Format version                 : Version 2
Format profile                 : [email protected]
Format settings, BVOP          : No
Format settings, Matrix        : Default
Codec ID                       : V_MPEG2
Codec ID/Info                  : MPEG 1 or 2 Video
Duration                       : 1h 52mn
Bit rate mode                  : Variable
Bit rate                       : 14.1 Mbps
Width                          : 1 920 pixels
Height                         : 1 080 pixels
Display aspect ratio           : 16:9
Frame rate mode                : Constant
Frame rate                     : 29.970 fps
Color space                    : YUV
Chroma subsampling             : 4:2:0
Bit depth                      : 8 bits
Scan type                      : Progressive
Compression mode               : Lossy
Bits/(Pixel*Frame)             : 0.227
Time code of first frame       : 00:00:00:00
Time code source               : Group of pictures header
Stream size                    : 11.0 GiB (94%)
Default                        : Yes
Forced                         : No
Audio #1
ID                             : 2
Format                         : AC-3
Format/Info                    : Audio Coding 3
Format profile                 : Dolby Digital
Mode extension                 : CM (complete main)
Format settings, Endianness    : Big
Codec ID                       : A_AC3
Duration                       : 1h 52mn
Bit rate mode                  : Constant
Bit rate                       : 224 Kbps
Channel(s)                     : 2 channels
Channel positions              : Front: L R
Sampling rate                  : 48.0 KHz
Bit depth                      : 16 bits
Compression mode               : Lossy
Stream size                    : 180 MiB (1%)
Default                        : No
Forced                         : No
Audio #2
ID                             : 3
Format                         : AC-3
Format/Info                    : Audio Coding 3
Mode extension                 : CM (complete main)
Format settings, Endianness    : Big
Codec ID                       : A_AC3
Duration                       : 1h 52mn
Bit rate mode                  : Constant
Bit rate                       : 384 Kbps
Channel(s)                     : 2 channels
Channel positions              : Front: L R
Sampling rate                  : 48.0 KHz
Bit depth                      : 16 bits
Compression mode               : Lossy
Stream size                    : 308 MiB (3%)
Language                       : English
Default                        : Yes
Forced                         : No
-

Создавать темы 14-Окт-2013 20:23

[Профиль]  [ЛС] 

ziyod19-91

Стаж: 5 лет 9 месяцев

Сообщений: 27

Симпатии: 1

Этот раздел больше подходит HD-video::Документальные фильмы, имхо

Создавать темы 14-Окт-2013 20:57

[Профиль]  [ЛС] 

Gaius Marius ®

Стаж: 4 года 5 месяцев

Сообщений: 9

Симпатии: 1

Я не увидел этот раздел.
Надеюсь модеры переместят релиз в нужный раздел.
P.S. Раздача будет завтра.

Создавать темы 14-Окт-2013 21:49

[Профиль]  [ЛС] 

Топик был перенесен из форума Документальные фильмы и телепередачи в форум Документальные фильмы

Gaius Marius

Создавать темы 14-Окт-2013 22:42

 

PanzerFastuz

Стаж: 3 года 10 месяцев

Сообщений: 9

Как я понял - качать уже бесполезняк. Уже месяц торчит на 63 процентах. :-(

Создавать темы 23-Янв-2014 13:57

[Профиль]  [ЛС] 
Показать сообщения:    
Ответить на тему

Текущее время: 19-Окт 06:46

Часовой пояс: UTC + 5



Вы не можете начинать темы
Вы не можете отвечать на сообщения
Вы не можете редактировать свои сообщения
Вы не можете удалять свои сообщения
Вы не можете голосовать в опросах
Вы не можете прикреплять файлы к сообщениям
Вы не можете скачивать файлы