Битва экстрасенсов (14 сезон: 1-15 выпуски) (Олег Чаурс) [2013, Паранормальное шоу, SATRip] [2013 г., Паранормальное шоу, SATRip]

Страницы :  1, 2, 3, 4, 5, 6, 7  След.

Ответить на тему
 

Rustam777 ®

Стаж: 6 лет 6 месяцев

Сообщений: 89

Симпатии: 1

Битва экстрасенсов(14 сезон: 1-15 выпуск)- -Год выпуска: 2013
Страна: Россия
Жанр: Паранормальное шоу
Продолжительность: 01:10:01
Перевод: Не требуется (Оригинал)-Описание: За все время своего существования шоу «Битва экстрасенсов» ТНТ проверило 118 человек, называющих себя ясновидящими. Двенадцать сильнейших дошли до финала и доказали свою силу. Эксперимент продолжается! В эфир ТНТ выходит новый, 14-й сезон шоу «Битва экстрасенсов»! «В этом сезоне наши постоянные скептики братья Сафроновы объявляют почти открытую войну экстрасенсам. Так что 14-я «Битва» будет жаркой. Все испытания, которые готовятся для участников, держатся в строжайшем секрете. В этом смысл всего проекта: мы должны соблюдать чистоту эксперимента».-Качество: SATRip+WEBDLRip
Формат: AVI
Видео кодек: XviD
Аудио кодек: MP3
Видео: Xvid 720x400 25fps, 1 501 Kbps
Аудио: MP3 48000Hz, 128kbps, 2 channels-+ c 16 по 20 СПЕЦВЫПУСКИ:
Формат: mp4
Видео: MPEG4 Video (H264) 640x360 25fps [Video Out]
Аудио: MPEG4 Audio 48000Hz stereo 1536kbps [Audio Out]-

MediaInfo

Complete name : D:\Videos\Bitva.ekstrasensov. 14-01.SATRip.avi
Format : AVI
Format/Info : Audio Video Interleave
File size : 821 MiB
Duration : 1h 10mn
Overall bit rate : 1 638 Kbps
Writing library : VirtualDub build 32706/release
Video
ID : 0
Format : MPEG-4 Visual
Format profile : Advanced [email protected]
Format settings, BVOP : 2
Format settings, QPel : No
Format settings, GMC : No warppoints
Format settings, Matrix : Default (MPEG)
Codec ID : XVID
Codec ID/Hint : XviD
Duration : 1h 10mn
Bit rate : 1 501 Kbps
Width : 720 pixels
Height : 400 pixels
Display aspect ratio : 16:9
Frame rate : 25.000 fps
Color space : YUV
Chroma subsampling : 4:2:0
Bit depth : 8 bits
Scan type : Progressive
Compression mode : Lossy
Bits/(Pixel*Frame) : 0.208
Stream size : 752 MiB (92%)
Writing library : XviD 1.2.1 (UTC 2008-12-04)
Audio
ID : 1
Format : MPEG Audio
Format version : Version 1
Format profile : Layer 3
Mode : Joint stereo
Mode extension : MS Stereo
Codec ID : 55
Codec ID/Hint : MP3
Duration : 1h 10mn
Bit rate mode : Constant
Bit rate : 128 Kbps
Channel(s) : 2 channels
Sampling rate : 48.0 KHz
Compression mode : Lossy
Stream size : 64.1 MiB (8%)
Alignment : Split accross interleaves
Interleave, duration : 40 ms (1.00 video frame)
Interleave, preload duration : 500 ms

Скриншоты


Раздача ведется путем добавления новых серий

Внимание! Раздача ведётся путём добавления новых выпусков; при каждом добавлении создаётся новый торрент.
Чтобы начать докачку нового выпуска, пользователям необходимо сделать следующее:
(1) остановить скачивание;
(2) удалить старый торрент у себя из клиента (старые серии удалять не надо);
(3) скачать новый торрент и запустить его у себя в клиенте вместо старого, при этом указать клиенту путь в старую папку куда и должно происходить скачивание новых выпусков.
Ваш клиент при этом должен произвести хеширование (проверку) старой папки (если не производит сам - помогите ему сделать это), и будет докачивать только те выпуски которых у вас ещё нет. Старые выпуски при этом не удаляются, а продолжают раздаваться!
Eсли вы уже удалили старые выпуски, то предотвратить повторную закачку старых выпусков можно, отжав галочку в соответствующих местах при запуске нового торрента.
ВНИМАНИЕ, 11.02.2014 г. ТОРРЕНТ ОБНОВЛЕН - ДОБАВЛЕН 20 СПЕЦВЫПУСК !РАЗДАЧА с 21.00 по 8.00 ЧАСОВ


Последний раз редактировалось: Rustam777 (2014-02-11 20:34), всего редактировалось 23 раз(а)

Создавать темы 14-Окт-2013 20:57

[Профиль]  [ЛС] 

stalkiler

Стаж: 5 лет 8 месяцев

Сообщений: 46

Проверьте быстрее Хочется посмотреть уже

Создавать темы 14-Окт-2013 21:07

[Профиль]  [ЛС] 

Tiar17

Стаж: 6 лет 2 месяца

Сообщений: 83

Симпатии: 5

благодарим, Рустам!

Создавать темы 14-Окт-2013 21:10

[Профиль]  [ЛС] 

Rustam777 ®

Стаж: 6 лет 6 месяцев

Сообщений: 89

Симпатии: 1

благодарим, Рустам!
Да не за что, просто никак не мог файл закрепить на старом реализе.

Создавать темы 14-Окт-2013 21:28

[Профиль]  [ЛС] 

stalkiler

Стаж: 5 лет 8 месяцев

Сообщений: 46

А когда проверят сегодня получиться скачать?

Создавать темы 14-Окт-2013 21:35

[Профиль]  [ЛС] 

Rustam777 ®

Стаж: 6 лет 6 месяцев

Сообщений: 89

Симпатии: 1

Я на раздаче, зачем ждать качай уже. потом проверят

Создавать темы 14-Окт-2013 21:46

[Профиль]  [ЛС] 

чикоо

Стаж: 5 лет 6 месяцев

Сообщений: 9

друг, мы ждем а раздачи чета пока нет

Создавать темы 14-Окт-2013 21:47

[Профиль]  [ЛС] 

чикоо

Стаж: 5 лет 6 месяцев

Сообщений: 9

4 выпуск только хочу скачать а раздачи неееееееееееееееееееееееееееееееееет

Создавать темы 14-Окт-2013 21:50

[Профиль]  [ЛС] 

stalkiler

Стаж: 5 лет 8 месяцев

Сообщений: 46

Кстати если тут кто то сидит и смотрит как вы думаете Аброр из Узбекистана пройдет до финала лично я считаю он очень сильный

Создавать темы 14-Окт-2013 21:51

[Профиль]  [ЛС] 

Tiar17

Стаж: 6 лет 2 месяца

Сообщений: 83

Симпатии: 5

да есть раздача. надо 5 минут подождать.

Создавать темы 14-Окт-2013 21:51

[Профиль]  [ЛС] 

чикоо

Стаж: 5 лет 6 месяцев

Сообщений: 9

просто честно не хочу на ютюбе смотреть давай поддай жаруууууу

Создавать темы 14-Окт-2013 21:51

[Профиль]  [ЛС] 

чикоо

Стаж: 5 лет 6 месяцев

Сообщений: 9

ладно друг подеждем, извини

Создавать темы 14-Окт-2013 21:52

[Профиль]  [ЛС] 

stalkiler

Стаж: 5 лет 8 месяцев

Сообщений: 46

Кстати если тут кто то сидит и смотрит как вы думаете Аброр из Узбекистана пройдет до финала лично я считаю он очень сильный !!!!!!!!!!!

Создавать темы 14-Окт-2013 21:52

[Профиль]  [ЛС] 

Tiar17

Стаж: 6 лет 2 месяца

Сообщений: 83

Симпатии: 5

stalkiler, согласен, мне он тоже по душе. в финал он пройдет, полагаю. он с Ташкента.

Создавать темы 14-Окт-2013 21:53

[Профиль]  [ЛС] 

stalkiler

Стаж: 5 лет 8 месяцев

Сообщений: 46

неужели услышал ответ Я считаю как профессиональный экстрасенс думаю что в финале будут Аброр,Мералин и Александ

Создавать темы 14-Окт-2013 21:57

[Профиль]  [ЛС] 
Показать сообщения:    
Ответить на тему

Текущее время: 17-Дек 22:37

Часовой пояс: UTC + 5



Вы не можете начинать темы
Вы не можете отвечать на сообщения
Вы не можете редактировать свои сообщения
Вы не можете удалять свои сообщения
Вы не можете голосовать в опросах
Вы не можете прикреплять файлы к сообщениям
Вы не можете скачивать файлы