Телескоп Хаббл / IMAX - Hubble (Тони Майерс) [2010, Документальный, BDRip 720p] + Original +Subs (Rus)

Ответить на тему
 

Gaius Marius ®

Стаж: 4 года 3 месяца

Сообщений: 9

Симпатии: 1

Телескоп Хаббл / IMAX - Hubble
Год выпуска: 2010
Страна: Канада
Жанр: документальный
Продолжительность: 00:44:00
Перевод: Профессиональный (одноголосый)
Качество перевода: Лицензия
Русские субтитры: Есть-Режиссер: Тони Майерс
В ролях: Скотт Д. Олтмэн, Леонардо ДиКаприо, Майкл Т. Гуд, Грегори С. Джонсон, Майкл Дж. Массимино, К. Меган МакАртур-Описание:
Используя визуальную мощь кинотеатров IMAX®, Hubble 3D позволит кинозрителям путешествовать через отдаленные галактики, исследовать великолепие и тайны нашей вселенной, и сопровождать работу астронавтов, на плечи которых возложены самые трудные и важные задачи в истории НАСА. Благодаря космическому телескопу Хаббл мы увидим вселенную такой, какой ее только можно увидеть в космосе с помощью самого мощного в мире телескопа.-Качество: BDRip 720p
Формат:MKV
Видео: 1280x720 at 23.976 fps, ~4500 kbps avg
Аудио №1: Russian: 48 kHz, DTS, 3/2 (L,C,R,l,r) + LFE ch, ~1536.00 kbps avg |Одноголосый закадровый, Ю.Сербин|
Аудио №2: English: 48 kHz, DTS, 3/2 (L,C,R,l,r) + LFE ch, ~1536.00 kbps avg
-

Скриншоты

MI

General
Unique ID                      : 225802404728240579033639547183768188147 (0xA9DFF61651ECB6F79885F881395EB4F3)
Complete name                  : F:\Релизы\IMAX.Hubble.3D.2010.720p.BluRay.Rus.Eng.HDCLUB.mkv
Format                         : Matroska
Format version                 : Version 2
File size                      : 2.31 GiB
Duration                       : 43mn 59s
Overall bit rate               : 7 523 Kbps
Movie name                     : IMAX Hubble 3D (2010) - Release for HDCLUB
Encoded date                   : UTC 2012-01-15 11:52:49
Writing application            : mkvmerge v3.4.0 ('Rapunzel') built on May 15 2010 09:38:20
Writing library                : libebml v0.8.0 + libmatroska v0.9.0
Video
ID                             : 1
Format                         : AVC
Format/Info                    : Advanced Video Codec
Format profile                 : [email protected]
Format settings, CABAC         : Yes
Format settings, ReFrames      : 9 frames
Codec ID                       : V_MPEG4/ISO/AVC
Duration                       : 43mn 59s
Bit rate                       : 4 500 Kbps
Width                          : 1 280 pixels
Height                         : 720 pixels
Display aspect ratio           : 16:9
Frame rate mode                : Constant
Frame rate                     : 23.976 fps
Color space                    : YUV
Chroma subsampling             : 4:2:0
Bit depth                      : 8 bits
Scan type                      : Progressive
Bits/(Pixel*Frame)             : 0.204
Stream size                    : 1.34 GiB (58%)
Title                          : Release for HDCLUB
Writing library                : x264 core 114 r1900 60ef1f8
Encoding settings              : cabac=1 / ref=9 / deblock=1:-3:-3 / analyse=0x3:0x133 / me=tesa / subme=10 / psy=1 / psy_rd=0.90:0.00 / mixed_ref=1 / me_range=32 / chroma_me=1 / trellis=2 / 8x8dct=1 / cqm=0 / deadzone=21,11 / fast_pskip=0 / chroma_qp_offset=-2 / threads=6 / sliced_threads=0 / nr=0 / decimate=1 / interlaced=0 / constrained_intra=0 / bframes=7 / b_pyramid=2 / b_adapt=2 / b_bias=0 / direct=3 / weightb=1 / open_gop=0 / weightp=2 / keyint=250 / keyint_min=23 / scenecut=40 / intra_refresh=0 / rc_lookahead=40 / rc=2pass / mbtree=1 / bitrate=4500 / ratetol=1.0 / qcomp=0.60 / qpmin=0 / qpmax=69 / qpstep=4 / cplxblur=20.0 / qblur=0.5 / ip_ratio=1.40 / aq=1:1.00
Language                       : English
Default                        : No
Forced                         : No
Audio #1
ID                             : 2
Format                         : DTS
Format/Info                    : Digital Theater Systems
Mode                           : 16
Format settings, Endianness    : Big
Codec ID                       : A_DTS
Duration                       : 43mn 59s
Bit rate mode                  : Constant
Bit rate                       : 1 509 Kbps
Channel(s)                     : 6 channels
Channel positions              : Front: L C R, Side: L R, LFE
Sampling rate                  : 48.0 KHz
Bit depth                      : 24 bits
Compression mode               : Lossy
Stream size                    : 475 MiB (20%)
Title                          : DTS 5.1 @ 1536 kbps - Одноголосый закадровый, Ю.Сербин
Language                       : Russian
Default                        : Yes
Forced                         : No
Audio #2
ID                             : 3
Format                         : DTS
Format/Info                    : Digital Theater Systems
Mode                           : 16
Format settings, Endianness    : Big
Codec ID                       : A_DTS
Duration                       : 43mn 59s
Bit rate mode                  : Constant
Bit rate                       : 1 509 Kbps
Channel(s)                     : 6 channels
Channel positions              : Front: L C R, Side: L R, LFE
Sampling rate                  : 48.0 KHz
Bit depth                      : 24 bits
Compression mode               : Lossy
Delay relative to video        : 11ms
Stream size                    : 475 MiB (20%)
Title                          : DTS 5.1 @ 1536 kbps
Language                       : English
Default                        : No
Forced                         : No
Text #1
ID                             : 4
Format                         : UTF-8
Codec ID                       : S_TEXT/UTF8
Codec ID/Info                  : UTF-8 Plain Text
Language                       : Russian
Default                        : No
Forced                         : No
Text #2
ID                             : 5
Format                         : UTF-8
Codec ID                       : S_TEXT/UTF8
Codec ID/Info                  : UTF-8 Plain Text
Language                       : English
Default                        : No
Forced                         : No
Menu
00:00:00.000                   : en:CHAPTER01
00:09:57.597                   : en:CHAPTER02
00:20:22.680                   : en:CHAPTER03
00:30:20.902                   : en:CHAPTER04
00:42:01.227                   : en:CHAPTER05

Создавать темы 14-Окт-2013 21:38

[Профиль]  [ЛС] 

тролль

Стаж: 4 года 2 месяца

Сообщений: 49

Симпатии: 2

Gaius Marius, спасибо за релиз!-Считаю, что это вполне нормальное качество(по размеру видео и его качеству, не столь много места занимает)-Качал в свое время BDRemux 1080 и конвертировал его более нормальное качество mb
потому-что, мягко говоря, нужен хороший комп для такого качества cb
вот пример конвента http://tas-ix.net/viewtopic.php?p=683945
aa

Создавать темы 14-Окт-2013 22:01

[Профиль]  [ЛС] 

Gaius Marius ®

Стаж: 4 года 3 месяца

Сообщений: 9

Симпатии: 1

тролль, Спасибо.
Я так понимаю там всего одна серия? У меня есть тот же релиз но весит оно 24.98 GB.
Думаю смотреть фильмы в хорошем качестве, это уважать себя и время=), чем эти камрипы.

Создавать темы 14-Окт-2013 22:07

[Профиль]  [ЛС] 

kamina_r.m

Стаж: 5 лет 6 месяцев

Сообщений: 29

Симпатии: 2

СПС за релиз

Создавать темы 14-Окт-2013 22:12

[Профиль]  [ЛС] 

kamina_r.m

Стаж: 5 лет 6 месяцев

Сообщений: 29

Симпатии: 2

Gaius Marius, ешё не проверяли. аа отдача 25 кб.с (32)

Создавать темы 14-Окт-2013 23:01

[Профиль]  [ЛС] 

Gaius Marius ®

Стаж: 4 года 3 месяца

Сообщений: 9

Симпатии: 1

kamina_r.m, никого нет в личерах, хотя раздаю кому то:
87 kB/s - 4% - UEI - 213.230.103.213 - µTorrent 3.2.2

Создавать темы 14-Окт-2013 23:08

[Профиль]  [ЛС] 
Показать сообщения:    
Ответить на тему

Текущее время: 22-Авг 04:55

Часовой пояс: UTC + 5



Вы не можете начинать темы
Вы не можете отвечать на сообщения
Вы не можете редактировать свои сообщения
Вы не можете удалять свои сообщения
Вы не можете голосовать в опросах
Вы не можете прикреплять файлы к сообщениям
Вы не можете скачивать файлы