Штурм Белого дома / White House Down (Роланд Эммерих) [2013., боевик, триллер, BDRip (1080p)] [лицензия]

Ответить на тему
 

Freezy# ®

Стаж: 4 года

Сообщений: 46

Симпатии: 1

Штурм Белого дома / White House Down Год выпуска: 2013
Страна: США
Жанр: боевик, триллер
Продолжительность: 02:11:32
Перевод: Профессиональный (полное дублирование) [лицензия]
Режиссер: Роланд Эммерих
Сценаристы: Джеймс Вандербилт
Продюсеры: Брэдли Дж. Фишер, Ларри Дж. Франко, Роланд Эммерих
В ролях: Джейми Фокс, Джеймс Вудс, Джейсон Кларк, Джимми Симпсон, Джои Кинг, Мэгги Джилленхол, Ричард Дженкинс, Ченнинг Татум, Майкл Мерфи, Николас Райт
Описание: Cотрудник госбезопасности приходит вместе с дочерью в Белый дом на собеседование на должность в структуру охраны президента. И именно в этот день Белый дом атакуют некие неопознанные вооружённые силы. Офицер проявляет чудеса находчивости и отваги, пытаясь спасти жизнь своему ребёнку, себе и президенту США.
IMDB рейтинг: 6,4/10 (27,620 голосов)
Кинопоиск рейтинг: 6.859 (6 288 голосов)
Бюджет: $150 000 000

Качество: BDRip [рип с 1080p]
Формат: MKV
Видео кодек: AVC
Аудио кодек: AC3/DTS
Видео: 1920x800 23.976 fps 6500 Kbps
Аудио #1: Russian: AC-3, 640 Kbps, 6 channels, 48.0 KHz
Аудио #2: English: DTS, 1510 Kbps, 6 channels, 48.0 KHz
Аудио #3: Ukrain: AC-3, 640 Kbps, 6 channels, 48.0 KHz
-

MediaInfo

General
Unique ID : 194860492428359198902146140371469947912 (0x9298C4072E7AC5FAA2F4BAEA61E75408)
Complete name : D:\Films\New\Shturm.belogo.doma.2013.D.BDRip.1080p _by Freezy.mkv
Format : Matroska
Format version : Version 2
File size : 8.54 GiB
Duration : 2h 11mn
Overall bit rate : 9 289 Kbps
Encoded date : UTC 2013-10-10 13:36:00
Writing application : mkvmerge v5.7.0 ('The Whirlwind') built on Jul 8 2012 20:08:51
Writing library : libebml v1.2.3 + libmatroska v1.3.0
Video
ID : 1
Format : AVC
Format/Info : Advanced Video Codec
Format profile : [email protected]
Format settings, CABAC : No
Format settings, ReFrames : 1 frame
Muxing mode : Header stripping
Codec ID : V_MPEG4/ISO/AVC
Duration : 2h 11mn
Bit rate : 6 500 Kbps
Width : 1 920 pixels
Height : 800 pixels
Display aspect ratio : 2.40:1
Frame rate : 23.976 fps
Color space : YUV
Chroma subsampling : 4:2:0
Bit depth : 8 bits
Scan type : Progressive
Bits/(Pixel*Frame) : 0.177
Stream size : 5.80 GiB (68%)
Writing library : x264 core 125 r2200 999b753
Encoding settings : cabac=0 / ref=1 / deblock=0:0:0 / analyse=0:0 / me=dia / subme=0 / psy=1 / psy_rd=1.00:0.00 / mixed_ref=0 / me_range=16 / chroma_me=1 / trellis=0 / 8x8dct=0 / cqm=0 / deadzone=21,11 / fast_pskip=1 / chroma_qp_offset=0 / threads=12 / lookahead_threads=2 / sliced_threads=0 / nr=0 / decimate=1 / interlaced=0 / bluray_compat=0 / constrained_intra=0 / bframes=0 / weightp=0 / keyint=250 / keyint_min=23 / scenecut=0 / intra_refresh=0 / rc=2pass / mbtree=0 / bitrate=6500 / ratetol=1.0 / qcomp=0.60 / qpmin=0 / qpmax=69 / qpstep=4 / cplxblur=20.0 / qblur=0.5 / ip_ratio=1.40 / aq=0
Default : Yes
Forced : No
Audio #1
ID : 2
Format : AC-3
Format/Info : Audio Coding 3
Mode extension : CM (complete main)
Muxing mode : Header stripping
Codec ID : A_AC3
Duration : 2h 11mn
Bit rate mode : Constant
Bit rate : 640 Kbps
Channel(s) : 6 channels
Channel positions : Front: L C R, Side: L R, LFE
Sampling rate : 48.0 KHz
Bit depth : 16 bits
Compression mode : Lossy
Stream size : 602 MiB (7%)
Default : Yes
Forced : No
Audio #2
ID : 3
Format : DTS
Format/Info : Digital Theater Systems
Muxing mode : Header stripping
Codec ID : A_DTS
Duration : 2h 11mn
Bit rate mode : Constant
Bit rate : 1 510 Kbps
Channel(s) : 6 channels
Channel positions : Front: L C R, Side: L R, LFE
Sampling rate : 48.0 KHz
Bit depth : 16 bits
Compression mode : Lossy
Stream size : 1.39 GiB (16%)
Default : No
Forced : No
Audio #3
ID : 4
Format : AC-3
Format/Info : Audio Coding 3
Mode extension : CM (complete main)
Muxing mode : Header stripping
Codec ID : A_AC3
Duration : 2h 11mn
Bit rate mode : Constant
Bit rate : 640 Kbps
Channel(s) : 6 channels
Channel positions : Front: L C R, Side: L R, LFE
Sampling rate : 48.0 KHz
Bit depth : 16 bits
Compression mode : Lossy
Stream size : 602 MiB (7%)
Default : No
Forced : No
-

Скриншоты



Последний раз редактировалось: Freezy# (2013-10-15 16:49), всего редактировалось 1 раз

Создавать темы 14-Окт-2013 21:53

[Профиль]  [ЛС] 

Freezy# ®

Стаж: 4 года

Сообщений: 46

Симпатии: 1

приятного просмотра az

Создавать темы 14-Окт-2013 21:55

[Профиль]  [ЛС] 

тролль

Стаж: 4 года 4 месяца

Сообщений: 49

Симпатии: 2

приятного просмотра az
Рип с блю-рей 1080?

Создавать темы 14-Окт-2013 22:03

[Профиль]  [ЛС] 

Freezy# ®

Стаж: 4 года

Сообщений: 46

Симпатии: 1

приятного просмотра az
Рип с блю-рей 1080?
наверняка. Покапайся др трекерах

Создавать темы 14-Окт-2013 22:27

[Профиль]  [ЛС] 

Machine

Стаж: 5 лет 2 месяца

Сообщений: 209

Симпатии: 68

Freezy#, Ты кто такой, Давай Досвидания)))

Создавать темы 14-Окт-2013 23:45

[Профиль]  [ЛС] 

Топик был перенесен из форума HD-AVC в форум Зарубежное кино

Grock

Создавать темы 15-Окт-2013 00:45

 

Grock

Стаж: 6 лет 8 месяцев

Сообщений: 637

Симпатии: 113

Freezy#, Добавьте еще пару скриншотов (должно быть минимум 3 скрина)

Создавать темы 15-Окт-2013 00:45

[Профиль]  [ЛС] 

qwew

Стаж: 5 лет 2 месяца

Сообщений: 75

Freezy#, Ты кто такой, Давай Досвидания)))
НЕ не правильно-ты кто такой Тавай Тасфидание,вот так вот

Создавать темы 15-Окт-2013 03:14

[Профиль]  [ЛС] 

Machine

Стаж: 5 лет 2 месяца

Сообщений: 209

Симпатии: 68

qwew, Не обращайте внимания, мы просто очень хорошо с ним знакомы))

Создавать темы 15-Окт-2013 15:24

[Профиль]  [ЛС] 

Freezy# ®

Стаж: 4 года

Сообщений: 46

Симпатии: 1

Freezy#, Добавьте еще пару скриншотов (должно быть минимум 3 скрина)
всё исправил! Вроде когда я заливал изначально было 4 скрина.
Да и кстати я же вроде на правильный раздел залил (hd avc) т.к это HD и кодек avc
но всё равно спасибо =)
Freezy#, Ты кто такой, Давай Досвидания)))
даффааай досвидание коллега =)

Создавать темы 15-Окт-2013 16:53

[Профиль]  [ЛС] 

Freezy# ®

Стаж: 4 года

Сообщений: 46

Симпатии: 1

linkin-par.90, понимаете я на раздаче, но не вижу УО даже с тередо
Если хотите могу заскринить юторрент

Создавать темы 03-Фев-2014 13:51

[Профиль]  [ЛС] 

alides

Стаж: 5 лет 1 месяц

Сообщений: 14

Симпатии: 1

остановился на 55%. Дайте докачать

Создавать темы 10-Июн-2014 20:13

[Профиль]  [ЛС] 
Показать сообщения:    
Ответить на тему

Текущее время: 23-Окт 00:24

Часовой пояс: UTC + 5



Вы не можете начинать темы
Вы не можете отвечать на сообщения
Вы не можете редактировать свои сообщения
Вы не можете удалять свои сообщения
Вы не можете голосовать в опросах
Вы не можете прикреплять файлы к сообщениям
Вы не можете скачивать файлы