Человек из стали / Man of steel (Зак Снайдер / Zack Snyder) [2013, США, Канада, Великобритания, фантастика, фэнтези, боевик, приключения, BDRip] Лицензия + Original Eng

Страницы :  1, 2  След.

Ответить на тему
 

Suxrob89 ®

Стаж: 7 лет 1 месяц

Сообщений: 933

Симпатии: 564

- -Человек из стали / Man of steel- Страна: США, Канада, Великобритания
Жанр: фантастика, фэнтези, боевик, приключения
Год выпуска: 2013
Продолжительность: 02:23:03
Перевод: Профессиональный (дублированный) [Лицензия] Blu-ray CEE
Cубтитры: нет
Оригинальная аудиодорожка: английский-Режиссер: Зак Снайдер / Zack Snyder-В ролях: Генри Кавилл, Эми Адамс, Майкл Шеннон, Кевин Костнер, Дайан Лэйн, Лоренс Фишбёрн, Антье Трое, Айелет Зурер, Рассел Кроу-Описание: Кларк Кент/Кал-Эл — молодой человек, который чувствует себя чужаком из-за своей невероятной силы. Много лет назад он был отправлен на Землю с развитой планеты Криптон, и теперь задается вопросом: зачем? Воспитанный приемными родителями Мартой и Джонатаном Кентами, Кларк знает: обладать сверхспособностями — значит принимать сложные решения. Но когда человечество более всего нуждается в стабильности, оно подвергается нападению. Сможет ли герой восстановить мир, или воспользуется своей силой для того, чтобы окончательно его разрушить?- -Качество видео: BDRip
Формат видео: MKV
Видео кодек: MPEG-4 AVC/H.264
Аудио кодек: AC3
Видео: 720x300 (2.40:1), 1 055 kbps avg, 23.976 fps, 0.203 bit/pixel
Аудио: AC3, 6 ch, 48 kHz, 640 kbps, 16-bit, 23.976 fps (NTSC) Russian
Аудио 2: AC3, 2 ch, 48 kHz, 192 kbps, 16-bit English

MediaInfo

C:\Человек из стали (Man of Steel).Dub.2013.BDRip.mkv
General
Unique ID : 223357659467580963646562567961320224052 (0xA8091ED6F8642EC89FEA8CA21EB9F534)
Complete name : C:\Человек из стали (Man of Steel).Dub.2013.BDRip.mkv
Format : Matroska
Format version : Version 4 / Version 2
File size : 1.91 GiB
Duration : 2h 23mn
Overall bit rate : 1 912 Kbps
Movie name : -=Torrent Club=-
Encoded date : UTC 2013-10-19 02:42:53
Writing application : mkvmerge v6.3.0 ('You can't stop me!') built on Jun 28 2013 20:09:41
Writing library : libebml v1.3.0 + libmatroska v1.4.0
Video #2
ID : 2
Format : AVC
Format/Info : Advanced Video Codec
Format profile : [email protected]
Format settings, CABAC : Yes
Format settings, ReFrames : 5 frames
Codec ID : V_MPEG4/ISO/AVC
Duration : 2h 23mn
Bit rate : 1 042 Kbps
Width : 720 pixels
Height : 300 pixels
Display aspect ratio : 2.40:1
Frame rate mode : Constant
Frame rate : 23.976 fps
Color space : YUV
Chroma subsampling : 4:2:0
Bit depth : 8 bits
Scan type : Progressive
Bits/(Pixel*Frame) : 0.201
Stream size : 1.04 GiB (54%)
Title : rip_by_ZGV
Writing library : x264 core 138 r2358 9e941d1
Encoding settings : cabac=1 / ref=5 / deblock=1:0:0 / analyse=0x3:0x113 / me=umh / subme=8 / psy=1 / psy_rd=1.00:0.00 / mixed_ref=1 / me_range=16 / chroma_me=1 / trellis=1 / 8x8dct=1 / cqm=0 / deadzone=21,11 / fast_pskip=1 / chroma_qp_offset=-2 / threads=12 / lookahead_threads=2 / sliced_threads=0 / nr=0 / decimate=1 / interlaced=0 / bluray_compat=0 / constrained_intra=0 / bframes=3 / b_pyramid=2 / b_adapt=2 / b_bias=0 / direct=3 / weightb=1 / open_gop=0 / weightp=2 / keyint=250 / keyint_min=23 / scenecut=40 / intra_refresh=0 / rc_lookahead=50 / rc=crf / mbtree=1 / crf=19.0 / qcomp=0.60 / qpmin=0 / qpmax=69 / qpstep=4 / ip_ratio=1.40 / aq=1:1.00
Language : English
Default : Yes
Forced : No
Matrix coefficients : BT.709
Audio #1
ID : 1
Format : AC-3
Format/Info : Audio Coding 3
Mode extension : CM (complete main)
Format settings, Endianness : Big
Codec ID : A_AC3
Duration : 2h 23mn
Bit rate mode : Constant
Bit rate : 640 Kbps
Channel(s) : 6 channels
Channel positions : Front: L C R, Side: L R, LFE
Sampling rate : 48.0 KHz
Bit depth : 16 bits
Compression mode : Lossy
Stream size : 655 MiB (33%)
Default : Yes
Forced : No
Audio #3
ID : 3
Format : AC-3
Format/Info : Audio Coding 3
Mode extension : CM (complete main)
Format settings, Endianness : Big
Codec ID : A_AC3
Duration : 2h 23mn
Bit rate mode : Constant
Bit rate : 192 Kbps
Channel(s) : 2 channels
Channel positions : Front: L R
Sampling rate : 48.0 KHz
Bit depth : 16 bits
Compression mode : Lossy
Stream size : 196 MiB (10%)
Language : English
Default : No
Forced : No

Скриншоты



Последний раз редактировалось: Suxrob89 (2013-10-19 07:48), всего редактировалось 1 раз

Создавать темы 16-Окт-2013 07:24

[Профиль]  [ЛС] 

Suxrob89 ®

Стаж: 7 лет 1 месяц

Сообщений: 933

Симпатии: 564

Торрент обновлён до лицензии и качество хороший !!!


Последний раз редактировалось: Suxrob89 (2013-10-19 08:46), всего редактировалось 2 раз(а)

Создавать темы 16-Окт-2013 07:27

[Профиль]  [ЛС] 

Anti_Virus

Стаж: 6 лет 6 месяцев

Сообщений: 22

Симпатии: 5

ээээх звук.....
подождем лучше.

Создавать темы 16-Окт-2013 07:40

[Профиль]  [ЛС] 

hamit

Стаж: 6 лет 5 месяцев

Сообщений: 202

Симпатии: 17

Хороший фильм и звук тоже норм, для TS вполне нормальный

Создавать темы 16-Окт-2013 07:48

[Профиль]  [ЛС] 

4LIFEIP

Стаж: 4 года 5 месяцев

Сообщений: 127

Симпатии: 1

лучше чем всякие камприпы и вообще нормальный релиз

Создавать темы 16-Окт-2013 08:56

[Профиль]  [ЛС] 

dj_kazantip

Стаж: 5 лет

Сообщений: 42

Симпатии: 5

Suxrob89, уважаемый а можно Сэмпл

Создавать темы 16-Окт-2013 09:31

[Профиль]  [ЛС] 

wolfer

Стаж: 5 лет 7 месяцев

Сообщений: 61

А когда релиз на лицензию?

Создавать темы 16-Окт-2013 14:42

[Профиль]  [ЛС] 

tron

Стаж: 3 года 11 месяцев

Сообщений: 31

Симпатии: 4

В фильме точна есть английский аудио дорожка кто скачал
прежде Я скачал вот этот релиз http://tas-ix.net/viewtopic.php?t=73296 но у неё нет никаких английский аудио дорожка

Создавать темы 16-Окт-2013 18:30

[Профиль]  [ЛС] 

Suxrob89 ®

Стаж: 7 лет 1 месяц

Сообщений: 933

Симпатии: 564

tron, сам проверил есть английская аудио дорожка и на Media info написано

Создавать темы 16-Окт-2013 19:06

[Профиль]  [ЛС] 

tron

Стаж: 3 года 11 месяцев

Сообщений: 31

Симпатии: 4

Suxrob89, Спасибо Буду скачат

Создавать темы 16-Окт-2013 19:19

[Профиль]  [ЛС] 

ARAmagedon

Стаж: 4 года 7 месяцев

Сообщений: 3

релиз на Blu-Ray
24 октября 2013,
релиз на DVD
24 октября 2013,

Создавать темы 17-Окт-2013 00:48

[Профиль]  [ЛС] 

rupedro

Стаж: 5 лет 7 месяцев

Сообщений: 26

я скачал и посмотрел этот фильм, слишком много фантастики. Точь в точь похож на Джона Картера и тоже самый бюджет 2250000$

Создавать темы 17-Окт-2013 14:15

[Профиль]  [ЛС] 

warmen

Стаж: 6 лет 11 месяцев

Сообщений: 101

Симпатии: 4

я скачал и посмотрел этот фильм, слишком много фантастики. Точь в точь похож на Джона Картера и тоже самый бюджет 2250000$
но зато этот фильм не оказался провалом как Джон Картер)

Создавать темы 17-Окт-2013 14:33

[Профиль]  [ЛС] 

Saidazim

Стаж: 6 лет 11 месяцев

Сообщений: 18

Симпатии: 2

я скачал и посмотрел этот фильм, слишком много фантастики. Точь в точь похож на Джона Картера и тоже самый бюджет 2250000$
Сам супермен и есть фантастика!

Создавать темы 18-Окт-2013 01:51

[Профиль]  [ЛС] 

mr.green

Стаж: 3 года 11 месяцев

Сообщений: 25

Симпатии: 6

Не знаю вас - А МНЕ ОЧЕН ПОНРАВИЛСЯ. Филм класс.

Создавать темы 18-Окт-2013 17:25

[Профиль]  [ЛС] 
Показать сообщения:    
Ответить на тему

Текущее время: 25-Сен 13:12

Часовой пояс: UTC + 5



Вы не можете начинать темы
Вы не можете отвечать на сообщения
Вы не можете редактировать свои сообщения
Вы не можете удалять свои сообщения
Вы не можете голосовать в опросах
Вы не можете прикреплять файлы к сообщениям
Вы не можете скачивать файлы