Семейка Крудс / The Croods (Кирк де Микко, Крис Сандерс) [2013 г., мультфильм, фэнтези, комедия, приключения, семейный, BDRip]

Ответить на тему
 

Inobat ®

Стаж: 6 лет 10 месяцев

Сообщений: 23

Симпатии: 10

- -Год выпуска: 2013
Страна: США
Жанр: мультфильм, фэнтези, комедия, приключения, семейный
Продолжительность: 01:38:37
Перевод: Профессиональный (полное дублирование)[лицензия]
Субтитры: отсутствуют--Режиссер: Кирк де Микко, Крис Сандерс
В ролях: Николас Кейдж, Эмма Стоун, Райан Рейнольдс, Кэтрин Кинер, Клорис Личмен, Кларк Дьюк, Крис Сандерс- -Описание: Землетрясение уничтожило дом доисторической семьи, и теперь Крудсам придётся искать другое пристанище. А вокруг новый и опасный мир! Им на помощь приходит молодой кочевник Малой, передовые взгляды которого наталкиваются на консервативность главы семьи Груга. Но только вместе они смогут выжить и достичь своей цели…-Качество: BDRip
Формат: MKV
Видео кодек: AVC
Аудио кодек: AC3, DTS
Видео: AVC, 3244 kbps, 1280x544, 23.976 fps
Аудио #1: AC3, 448 kbps, 6 ch, 48.0 KHz | Russian
Аудио #2: DTS, 1510 kbps, 6 ch, 48.0 KHz | English

MediaInfo

E:\torrent\Ñåìåéêà Êðóäñ_The Croods_BDRip_Ëèöåíçèÿ.mkv
General
Unique ID : 200352949328321063671120975107847692791 (0x96BA930F888E55048C291A6D236921F7)
Complete name : E:\torrent\Ñåìåéêà Êðóäñ_The Croods_BDRip_Ëèöåíçèÿ.mkv
Format : Matroska
Format version : Version 2
File size : 3.58 GiB
Duration : 1h 38mn
Overall bit rate : 5 203 Kbps
Encoded date : UTC 2013-09-13 10:05:46
Writing application : mkvmerge v5.8.0 ('No Sleep / Pillow') built on Sep 2 2012 15:37:04
Writing library : libebml v1.2.3 + libmatroska v1.3.0
Video #1
ID : 1
Format : AVC
Format/Info : Advanced Video Codec
Format profile : [email protected]
Format settings, CABAC : Yes
Format settings, ReFrames : 5 frames
Codec ID : V_MPEG4/ISO/AVC
Duration : 1h 38mn
Bit rate : 3 244 Kbps
Width : 1 280 pixels
Height : 544 pixels
Display aspect ratio : 2.35:1
Frame rate : 23.976 fps
Color space : YUV
Chroma subsampling : 4:2:0
Bit depth : 8 bits
Scan type : Progressive
Bits/(Pixel*Frame) : 0.194
Stream size : 2.16 GiB (60%)
Title : X264
Writing library : x264 core 133 r2334 a3ac64b
Encoding settings : cabac=1 / ref=5 / deblock=1:0:0 / analyse=0x3:0x133 / me=umh / subme=7 / psy=1 / psy_rd=1.00:0.00 / mixed_ref=1 / me_range=16 / chroma_me=1 / trellis=1 / 8x8dct=1 / cqm=0 / deadzone=21,11 / fast_pskip=0 / chroma_qp_offset=-2 / threads=36 / lookahead_threads=4 / sliced_threads=0 / nr=0 / decimate=1 / interlaced=0 / bluray_compat=0 / constrained_intra=0 / bframes=3 / b_pyramid=2 / b_adapt=1 / b_bias=0 / direct=1 / weightb=1 / open_gop=0 / weightp=2 / keyint=250 / keyint_min=23 / scenecut=40 / intra_refresh=0 / rc_lookahead=40 / rc=2pass / mbtree=1 / bitrate=3244 / ratetol=1.0 / qcomp=0.60 / qpmin=0 / qpmax=69 / qpstep=4 / cplxblur=20.0 / qblur=0.5 / ip_ratio=1.40 / aq=1:1.00
Language : English
Default : Yes
Forced : No
Audio #2
ID : 2
Format : AC-3
Format/Info : Audio Coding 3
Mode extension : CM (complete main)
Format settings, Endianness : Big
Codec ID : A_AC3
Duration : 1h 38mn
Bit rate mode : Constant
Bit rate : 448 Kbps
Channel(s) : 6 channels
Channel positions : Front: L C R, Side: L R, LFE
Sampling rate : 48.0 KHz
Bit depth : 16 bits
Compression mode : Lossy
Delay relative to video : 200ms
Stream size : 316 MiB (9%)
Language : Russian
Default : Yes
Forced : No
Audio #3
ID : 3
Format : DTS
Format/Info : Digital Theater Systems
Codec ID : A_DTS
Duration : 1h 38mn
Bit rate mode : Constant
Bit rate : 1 510 Kbps
Channel(s) : 6 channels
Channel positions : Front: L C R, Side: L R, LFE
Sampling rate : 48.0 KHz
Bit depth : 24 bits
Compression mode : Lossy
Stream size : 1.04 GiB (29%)
Title : DTS
Language : English
Default : No
Forced : No

Скриншоты



Создавать темы 16-Окт-2013 15:43

[Профиль]  [ЛС] 

Топик был перенесен из форума Мультфильмы в форум HD-AVC

Grock

Создавать темы 16-Окт-2013 15:58

 

ralex

Стаж: 5 лет 10 месяцев

Сообщений: 289

Симпатии: 28

ПОМОГУ С РАЗДАЧЕЙ!
Мульт классный, качество хорошее!

Создавать темы 16-Окт-2013 21:22

[Профиль]  [ЛС] 

Android

Стаж: 4 года 1 месяц

Сообщений: 73

Симпатии: 11

Spectra, У меня есть если Что 1,37 ГБ добавить

_________________
Подпись отключена за нарушение правил форума

Создавать темы 24-Окт-2013 14:52

[Профиль]  [ЛС] 

самурай

Стаж: 6 лет 7 месяцев

Сообщений: 6

Ну дайте же докачать!!!!!!!!!!

Создавать темы 30-Окт-2013 21:10

[Профиль]  [ЛС] 

ralex

Стаж: 5 лет 10 месяцев

Сообщений: 289

Симпатии: 28

ta кто нибудь подскажите, почему у меня не идет раздача
Кто провайдер у вас?

Создавать темы 05-Ноя-2013 20:45

[Профиль]  [ЛС] 

Kenja_boy

Стаж: 4 года 9 месяцев

Сообщений: 17

Симпатии: 1

качество хорошее! BDRip

Создавать темы 29-Мар-2014 16:39

[Профиль]  [ЛС] 

Broxa

Стаж: 4 года 3 месяца

Сообщений: 13

Люди дайте скорости.

Создавать темы 18-Июл-2014 20:48

[Профиль]  [ЛС] 
Показать сообщения:    
Ответить на тему

Текущее время: 25-Ноя 12:34

Часовой пояс: UTC + 5



Вы не можете начинать темы
Вы не можете отвечать на сообщения
Вы не можете редактировать свои сообщения
Вы не можете удалять свои сообщения
Вы не можете голосовать в опросах
Вы не можете прикреплять файлы к сообщениям
Вы не можете скачивать файлы