Лимб / Haunter (Винченцо Натали / Vincenzo Natali) [2013, Канада, Франция, ужасы, триллер, детектив, DVDRip][Лицензия]

Страницы :  1, 2  След.

Ответить на тему
 

Suxrob89 ®

Стаж: 7 лет 1 месяц

Сообщений: 933

Симпатии: 564

-Лимб / Haunter-«Не выходи из дома. Не зови на помощь. Не пытайся вырваться»- Страна: Канада, Франция
Жанр: ужасы, триллер, детектив
Год выпуска: 2013
Продолжительность: 01:33:01-Перевод: Профессиональный (дублированный) [Лицензия]
Cубтитры: нет-Режиссер: Винченцо Натали / Vincenzo Natali-В ролях: Эбигейл Бреслин, Питер Аутербридж, Мишель Нолден, Стивен МакХэтти-Описание: На первый взгляд, Лиза с её младшим братом и родителями — совершенно обыкновенная семья, ведущая спокойную, размеренную жизнь. Но никто, кроме девочки, не подозревает, что они проживают один и тот же день уже не в первый раз…- -Качество видео: DVDRip
Формат видео: AVI
Видео: 720x400 (1.80:1), 25 fps, XviD build 50 ~1645 kbps avg, 0.23 bit/pixel
Аудио: 48 kHz, AC3 Dolby Digital, 6 ch, 448 kbps

MediaInfo

Формат : AVI
Формат/Информация : Audio Video Interleave
Размер файла : 1,37 Гбайт
Продолжительность : 1 ч. 33 м.
Общий поток : 2104 Кбит/сек
Программа кодирования : VirtualDubMod 1.5.10.2 (build 2540/release)
Библиотека кодирования : VirtualDubMod build 2540/release
Видео
Идентификатор : 0
Формат : MPEG-4 Visual
Профиль формата : Advanced [email protected]
Параметр BVOP формата : 2
Параметр QPel формата : Нет
Параметр GMC формата : Без точки перехода
Параметр матрицы формата : Выборочная
Идентификатор кодека : XVID
Идентификатор кодека/Подсказка : XviD
Продолжительность : 1 ч. 33 м.
Битрейт : 1646 Кбит/сек
Ширина : 720 пикселей
Высота : 400 пикселей
Соотношение сторон : 16:9
Частота кадров : 25,000 кадров/сек
Цветовое пространство : YUV
Субдискретизация насыщенности : 4:2:0
Битовая глубина : 8 бит
Тип развёртки : Прогрессивная
Метод сжатия : С потерями
Бит/(Пиксели*Кадры) : 0.229
Размер потока : 1,07 Гбайт (78%)
Библиотека кодирования : XviD 1.2.1 (UTC 2008-12-04)
Аудио
Идентификатор : 1
Формат : AC-3
Формат/Информация : Audio Coding 3
Расширение режима : CM (complete main)
Параметр Endianness формата : Big
Идентификатор кодека : 2000
Продолжительность : 1 ч. 33 м.
Вид битрейта : Постоянный
Битрейт : 448 Кбит/сек
Каналы : 6 каналов
Расположение каналов : Front: L C R, Side: L R, LFE
Частота : 48,0 КГц
Битовая глубина : 16 бит
Метод сжатия : С потерями
Размер потока : 298 Мбайт (21%)
Выравнивание : Разделение по промежуткам
Продолжительность промежутка : 40 мс. (1,00 видеокадр)
Время предзагрузки промежутка : 500 мс.

Скриншот c названием фильма

Скриншоты

Создавать темы 17-Окт-2013 04:59

[Профиль]  [ЛС] 

dragunov

Стаж: 6 лет 8 месяцев

Сообщений: 71

Симпатии: 6

Кажись фильм норм надо посмотреть!!

Создавать темы 17-Окт-2013 09:42

[Профиль]  [ЛС] 

infinity2go

Стаж: 5 лет 8 месяцев

Сообщений: 25

интерпретация "Дня сурка"

Создавать темы 17-Окт-2013 10:11

[Профиль]  [ЛС] 

Fuzuliy

Стаж: 5 лет 6 месяцев

Сообщений: 202

Симпатии: 12

Второй скриншот что там с ней она марихуану употребляла?

Создавать темы 17-Окт-2013 15:53

[Профиль]  [ЛС] 

Добрый Пух

Стаж: 4 года 3 месяца

Сообщений: 1

фильм не плохой, посмотреть стоит. сюжет интерестный

Создавать темы 18-Окт-2013 21:35

[Профиль]  [ЛС] 

KingMario

Стаж: 3 года 11 месяцев

Сообщений: 1

кто скачал дайте скорости!!

Создавать темы 18-Окт-2013 23:51

[Профиль]  [ЛС] 

outoforder

Стаж: 4 года 10 месяцев

Сообщений: 812

Симпатии: 172

в чем смысл сужета???

Создавать темы 22-Окт-2013 10:14

[Профиль]  [ЛС] 

nazar9988

Стаж: 5 лет 5 месяцев

Сообщений: 18

с одного раза не понять)) классный фильм для терпливый людей))

Создавать темы 22-Окт-2013 21:20

[Профиль]  [ЛС] 

rupedro

Стаж: 5 лет 7 месяцев

Сообщений: 26

фильм классный никак не похож на "день сурка"(в начале немножко есть похоже) а потом отжигает.

Создавать темы 23-Окт-2013 23:41

[Профиль]  [ЛС] 

Abdukarim2010

Стаж: 3 года 11 месяцев

Сообщений: 7

дайте раздачу

Создавать темы 14-Ноя-2013 17:13

[Профиль]  [ЛС] 

Abdukarim2010

Стаж: 3 года 11 месяцев

Сообщений: 7

Дайте скорость

Создавать темы 15-Ноя-2013 13:09

[Профиль]  [ЛС] 

erha

Стаж: 4 года 11 месяцев

Сообщений: 74

фильм полная лажа. Чего призракам боятся? Вообще даже страшных моментов раз-два и всё. Чуток повешу на раздаче (у меня уродский узонлайн) и удалю к чёрту этот фильм.

Создавать темы 16-Ноя-2013 08:43

[Профиль]  [ЛС] 

anikosik

Стаж: 5 лет 6 месяцев

Сообщений: 24

фильм так себе)) я не поняла смысла и логики... либо я слишком тупая либо фильм слишком дурацкий, хотя смотря на рейтинг больше склоняюсь ко второму варианту

Создавать темы 06-Дек-2013 15:22

[Профиль]  [ЛС] 

TAMIRLAN

Стаж: 3 года 10 месяцев

Сообщений: 12

Симпатии: 2

Помогите скачать плз!!!

Создавать темы 06-Дек-2013 18:36

[Профиль]  [ЛС] 

Rock_Phenomenon

Стаж: 3 года 9 месяцев

Сообщений: 4

Эбигейл Бреслин как всегда на высоте! Спасибо. Побольше бы таких релизов. bs

Создавать темы 07-Дек-2013 04:22

[Профиль]  [ЛС] 
Показать сообщения:    
Ответить на тему

Текущее время: 22-Сен 09:27

Часовой пояс: UTC + 5



Вы не можете начинать темы
Вы не можете отвечать на сообщения
Вы не можете редактировать свои сообщения
Вы не можете удалять свои сообщения
Вы не можете голосовать в опросах
Вы не можете прикреплять файлы к сообщениям
Вы не можете скачивать файлы