Спасти Землю / Echo Planet ( Компин Кемгумнирд) [2012г., мультфильм, DVDRip][Лицензия]

Ответить на тему
 

Suxrob89 ®

Стаж: 7 лет 2 месяца

Сообщений: 933

Симпатии: 564

-Спасти Землю / Echo Planet-«Они - последняя надежда планеты!»- Год выхода: 2012
Страна: Таиланд / Golden Network Asia
Жанр: мультфильм
Продолжительность: 01:15:39
Перевод: Дублированное [Лицензия]-Режиссер: Компин Кемгумнирд-В ролях: Ноппан Чантасорн, Атхипич Чутиваткаджорнчай, Конгдей Джатуранрасаме, Тходсапол Сирививат, Нуэнгтхида Сопхон-Описание: Простой американский мальчик, Сэмуэл Джонсон младший, вступил в бойскауты и пропал во время похода. Правда, он сын президента, так что он не может пропасть просто так — и обязательно найдет выход. Сэм провалился сквозь землю и оказался на противоположном конце света- в непроходимых джунглях. Именно там его ожидает страшное известие — из-за того, что люди перестали беречь Землю наша планета в опасности и только он может ее спасти. А помогать ему в этом нелегком деле будет бесстрашная воительница Нарва со своим братом. Друзей ждут необыкновенны приключения и практически нереальная задача — cпасти Землю, когда против тебя весь мир.- -Качество: DVDRip
Формат: AVI
Видео кодек: XviD
Аудио кодек: AC3
Видео: 2256 kb/s, 720x304, 25.000 fps
Аудио: AC3, 256 kb/s (6 ch), 48.0 KHz

Media info

F:\Spasti.zemlu.2012.D.DVDRip.1400MB.avi
General
Complete name : F:\Spasti.zemlu.2012.D.DVDRip.1400MB.avi
Format : AVI
Format/Info : Audio Video Interleave
File size : 1.37 GiB
Duration : 1h 18mn
Overall bit rate : 2 499 Kbps
Movie name : Spasti.zemlu.2012.D.DVDRip.1400MB.INTERCINEMA
Director : INTERCINEMA
Writing application : VirtualDubMod 1.5.10.2 (build 2540/release)
Original source form/Name : Cartoon
Copyright : http://www.intercinema.net
Video #0
ID : 0
Format : MPEG-4 Visual
Format profile : Advanced [email protected]
Format settings, BVOP : 2
Format settings, QPel : No
Format settings, GMC : No warppoints
Format settings, Matrix : Custom
Codec ID : XVID
Codec ID/Hint : XviD
Duration : 1h 18mn
Bit rate : 2 234 Kbps
Width : 720 pixels
Height : 304 pixels
Display aspect ratio : 2.35:1
Frame rate : 25.000 fps
Color space : YUV
Chroma subsampling : 4:2:0
Bit depth : 8 bits
Scan type : Progressive
Compression mode : Lossy
Bits/(Pixel*Frame) : 0.408
Stream size : 1.22 GiB (89%)
Writing library : XviD 1.2.1 (UTC 2008-12-04)
Audio #1
ID : 1
Format : AC-3
Format/Info : Audio Coding 3
Mode extension : CM (complete main)
Format settings, Endianness : Big
Codec ID : 2000
Duration : 1h 18mn
Bit rate mode : Constant
Bit rate : 256 Kbps
Channel(s) : 6 channels
Channel positions : Front: L C R, Side: L R, LFE
Sampling rate : 48.0 KHz
Bit depth : 16 bits
Compression mode : Lossy
Stream size : 143 MiB (10%)
Alignment : Split accross interleaves
Interleave, duration : 40 ms (1.00 video frame)
Interleave, preload duration : 500 ms

Скриншоты

Создавать темы 17-Окт-2013 11:59

[Профиль]  [ЛС] 

azam

Стаж: 7 лет 4 месяца

Сообщений: 97

Симпатии: 7

Несколько дней не идет закачка, хотя есть 10 сидов... Что за манера зажимать скорость???

Создавать темы 13-Дек-2013 08:35

[Профиль]  [ЛС] 

baburmahmudov36

Стаж: 5 лет 5 месяцев

Сообщений: 141

Симпатии: 4

помогите скачать добавте скорость

Создавать темы 13-Янв-2014 19:50

[Профиль]  [ЛС] 
Показать сообщения:    
Ответить на тему

Текущее время: 19-Окт 23:05

Часовой пояс: UTC + 5



Вы не можете начинать темы
Вы не можете отвечать на сообщения
Вы не можете редактировать свои сообщения
Вы не можете удалять свои сообщения
Вы не можете голосовать в опросах
Вы не можете прикреплять файлы к сообщениям
Вы не можете скачивать файлы