Навсикая из долины ветров / Nausicaa Of The Valley Of The Wind (Хаяо Миядзаки) [1984 г., фантастика, фэнтези, драма, мультфильм, аниме, BDRip, 720p]

Ответить на тему
 

pbyeh ®

Стаж: 5 лет 5 месяцев

Сообщений: 33

Симпатии: 2

Навсикая из долины ветров|Nausicaa Of The Valley Of The Wind
Год выпуска: 1984
Страна: Япония
Жанр: фантастика, фэнтези, драма, мультфильм, аниме
Продолжительность: 01:57:01
Перевод: Профессиональный (полное дублирование)
Режиссер: Миядзаки Хаяо
Студия:
Рейтинг: 8.1 / 10 | 100 / 100 | 8.102 / 10
-
Описание:
В будущем человечество, столетиями безоглядно эксплуатировавшее природу, пало жертвой своей гордыни. Землю постигла ужасная экологическая катастрофа, процветающие когда-то промышленные цивилизации обратились в прах, а поверхность планеты покрыло гигантское море Леса, испускающее в атмосферу ядовитые споры своих растений.
Оставшимся в живых людям приходится жить в тени Леса и его чудовищных насекомообразных обитателей, пытаясь не допустить распространения вредоносной растительности. Мирная Долина Ветров — одно из царств, образовавшихся на руинах прежних государств. Жители Долины обожают своего доброго правителя и его дочь Навсикаю, необычную девочку, находящую общий язык с исполинскими насекомыми Леса, странными порождениями нарушенной экосистемы.
Но безмятежное существование Долины Ветров нарушается, когда маленькая страна становится пешкой в играх крупных воинственных соседей, сражающихся за остатки драгоценных природных ресурсов планеты. Тем не менее, скрытому потенциалу Навсикаи ещё предстоит раскрыться, и юной принцессе, возможно, удастся изменить судьбы мира…
Факты о фильме:
Имя «Навсикая» Миядзаки взял у принцессы из «Одиссеи» Гомера. Увлечение же главной героини он позаимствовал из древней японской легенды о «благородной деве, которая любила насекомых».
Это первая и единственная работа студии «Topcraft» на японском рынке. До фильма «Topcraft» была субподрядчиком американской компании «Rankin-Bass», после стала основой созданной Миядзаки и Исао Такахатой «Studio Ghibli».
В 1980-х годах вышли две компьютерные игры по мотивам «Навсикаи» — шутер «Nausicaa in the Nick of Time» и приключенческая игра «Nausicaa of the Valley of Wind».
Также, Навсикая очень похожа на Клариссу из анимэ-фильма Люпен III: Замок Калиостро, над которым тоже работал Миядзаки.-Качество: BDRip (720p)
Видео: H.264, 1280 x 668px (1.860), 23.976 fps, ~5000 kbps, без анаморфа. Web Optimized.
Аудио: Русский дублированный (RUSCICO) (AAC Stereo), Японский (AAC Stereo).
Субтитры: Русские (RUSCICO), Английские.

Media Info

General
Complete name : D:\Torrent\Nausicaa of the Valley of Wind (HD).m4v
Format : MPEG-4
Format profile : Base Media / Version 2
Codec ID : mp42
File size : 4.31 GiB
Duration : 1h 57mn
Overall bit rate mode : Variable
Overall bit rate : 5 275 Kbps
Movie name : Nausicaa of the Valley of Wind
Performer : Hayao Miyazaki
Genre : Animation
Recorded date : 1984
Encoded date : UTC 2010-11-18 04:45:33
Tagged date : UTC 2010-12-01 13:17:11
Writing application : HandBrake svn3631 2010103101 Coding: Barma
Copyright : © Hakuhodo Incorporated, Nibariki, Tokuma Shoten, Topcraft
Cover : Yes
Comment : Из-за беспечности людей Земля лежит в руинах. Джунгли кишат гигантскими насекомыми. Но и с ними надо находить общий язык. Это удается только Навсикае - прелестной юной принцессе. Начинается война за оставшиеся на Земле природные ресурсы...
xid : RG-Apple:vendor_id:1984-8240
iTunEXTC : mpaa|PG|200|
iTunMOVI : <?xml version="1.0" encoding="UTF-8"?> / <!DOCTYPE plist PUBLIC "-//Apple//DTD PLIST 1.0//EN" "http://www.apple.com/DTDs/PropertyList-1.0.dtd"> / <plist version="1.0"> / <dict> / <key>cast</key> / <array> / <dict> / <key>name</key> / <string>Суми Шимамото</string> / </dict> / <dict> / <key>name</key> / <string>Mahito Tsujimura</string> / </dict> / <dict> / <key>name</key> / <string>Hisako Kyôda</string> / </dict> / <dict> / <key>name</key> / <string>Gorô Naya</string> / </dict> / <dict> / <key>name</key> / <string>Икиро Нагаи</string> / </dict> / <dict> / <key>name</key> / <string>Кохэй Мияучи</string> / </dict> / <dict> / <key>name</key> / <string>Jôji Yanami</string> / </dict> / <dict> / <key>name</key> / <string>Минору Яда</string> / </dict> / <dict> / <key>name</key> / <string>Rihoko Yoshida</string> / </dict> / <dict> / <key>name</key> / <string>Masako Sugaya...</string> / </dict> / </array> / <key>directors</key> / <array> / <dict> / <key>name</key> / <string>Хаяо Миядзаки</string> / </dict> / </array> / <key>producers</key> / <array> / <dict> / <key>name</key> / <string>Рик Демпси</string> / </dict> / <dict> / <key>name</key> / <string>Тохру Хара</string> / </dict> / <dict> / <key>name</key> / <string>Мичио Кондо</string> / </dict> / </array> / <key>screenwriters</key> / <array> / <dict> / <key>name</key> / <string>Хаяо Миядзаки</string> / </dict> / </array> / </dict> / </plist>
sonm : Nausicaa of the Valley of Wind
soar : Hayao Miyazaki
desc : Из-за беспечности людей Земля лежит в руинах. Джунгли кишат гигантскими насекомыми. Но и с ними надо находить общий язык. Это удается только Навсикае - прелестной юной принцессе. Начинается война за оставшиеся на Земле природные ресурсы...
ldes : Навсикая из долины ветров | Nausicaa of the Valley of Wind / / Из-за беспечности людей Земля лежит в руинах и вся покрылась ядовиты Лесом. Джунгли кишат гигантскими, многоглазыми насекомыми. Это "ому" — порождение нового мира. Но и с ними надо находить общий язык. Это удается только Навсикае — прелестной юной принцессе, дочке правителя княжества Долины Ветров на самом краю Леса. / Храбрая Навсикая пытается примирить враждующие стороны, которые сражаются за оставшиеся на Земле природные ресурсы. Принцесса еще не знает, что, по легенде, именно ей суждено спасти человечество от полного уничтожения.
hdvd : 1
stik : 9
rtng : 0
Video #1
ID : 1
Format : AVC
Format/Info : Advanced Video Codec
Format profile : [email protected]
Format settings, CABAC : No
Format settings, ReFrames : 2 frames
Codec ID : avc1
Codec ID/Info : Advanced Video Coding
Duration : 1h 57mn
Bit rate mode : Variable
Bit rate : 5 000 Kbps
Width : 1 280 pixels
Height : 688 pixels
Display aspect ratio : 1.85:1
Frame rate mode : Variable
Frame rate : 23.976 fps
Minimum frame rate : 23.810 fps
Maximum frame rate : 24.390 fps
Color space : YUV
Chroma subsampling : 4:2:0
Bit depth : 8 bits
Scan type : Progressive
Bits/(Pixel*Frame) : 0.237
Stream size : 4.09 GiB (95%)
Writing library : x264 core 107
Encoding settings : cabac=0 / ref=2 / deblock=1:0:0 / analyse=0x3:0x113 / me=umh / subme=9 / psy=1 / psy_rd=1.00:0.00 / mixed_ref=1 / me_range=32 / chroma_me=1 / trellis=0 / 8x8dct=1 / cqm=0 / deadzone=21,11 / fast_pskip=0 / chroma_qp_offset=-2 / threads=3 / sliced_threads=0 / nr=0 / decimate=0 / interlaced=0 / constrained_intra=0 / bframes=2 / b_pyramid=0 / b_adapt=2 / b_bias=0 / direct=3 / weightb=0 / open_gop=0 / weightp=0 / keyint=240 / keyint_min=23 / scenecut=40 / intra_refresh=0 / rc_lookahead=40 / rc=2pass / mbtree=1 / bitrate=5000 / ratetol=1.0 / qcomp=0.60 / qpmin=10 / qpmax=51 / qpstep=4 / cplxblur=20.0 / qblur=0.5 / vbv_maxrate=9500 / vbv_bufsize=9500 / ip_ratio=1.40 / aq=1:1.00 / nal_hrd=none
Language : Japanese
Encoded date : UTC 2010-11-18 04:45:33
Tagged date : UTC 2010-11-18 12:01:14
Color primaries : BT.709
Transfer characteristics : BT.709
Matrix coefficients : BT.709
Video #2
ID : 7
Format : JPEG
Codec ID : jpeg
Duration : 1h 57mn
Bit rate mode : Variable
Bit rate : 1 589 bps
Width : 640 pixels
Height : 344 pixels
Display aspect ratio : 1.85:1
Frame rate mode : Variable
Frame rate : 0.004 fps
Minimum frame rate : 0.002 fps
Maximum frame rate : 0.009 fps
Color space : YUV
Chroma subsampling : 4:2:0
Bit depth : 8 bits
Compression mode : Lossy
Bits/(Pixel*Frame) : 1.804
Stream size : 1.18 MiB (0%)
Encoded date : UTC 2010-11-27 03:41:57
Tagged date : UTC 2010-11-27 03:41:57
Audio #1
ID : 2
Format : AAC
Format/Info : Advanced Audio Codec
Format profile : LC
Codec ID : 40
Duration : 1h 56mn
Bit rate mode : Variable
Bit rate : 140 Kbps
Maximum bit rate : 181 Kbps
Channel(s) : 2 channels
Channel positions : Front: L R
Sampling rate : 48.0 KHz
Compression mode : Lossy
Delay relative to video : 42ms
Stream size : 117 MiB (3%)
Language : Russian
Encoded date : UTC 2010-11-27 02:05:05
Tagged date : UTC 2010-11-27 02:05:09
Audio #2
ID : 3
Format : AAC
Format/Info : Advanced Audio Codec
Format profile : LC
Codec ID : 40
Duration : 1h 57mn
Bit rate mode : Variable
Bit rate : 126 Kbps
Maximum bit rate : 150 Kbps
Channel(s) : 2 channels
Channel positions : Front: L R
Sampling rate : 48.0 KHz
Compression mode : Lossy
Delay relative to video : 42ms
Stream size : 106 MiB (2%)
Language : Japanese
Encoded date : UTC 2010-11-27 02:05:10
Tagged date : UTC 2010-11-27 02:05:15
Text #1
ID : 4
Format : Timed text
Muxing mode : sbtl
Codec ID : tx3g
Duration : 1h 54mn
Bit rate mode : Variable
Bit rate : 54 bps
Delay relative to video : 42ms
Stream size : 45.3 KiB (0%)
Language : Russian
Encoded date : UTC 2010-11-27 02:05:15
Tagged date : UTC 2010-11-27 02:05:15
Text #2
ID : 5
Format : Timed text
Muxing mode : sbtl
Codec ID : tx3g
Duration : 1h 56mn
Bit rate mode : Variable
Bit rate : 39 bps
Delay relative to video : 42ms
Stream size : 33.4 KiB (0%)
Language : English
Encoded date : UTC 2010-11-27 02:05:15
Tagged date : UTC 2010-11-27 02:05:15
Text #3
ID : 6
Format : Apple text
Codec ID : text
Duration : 1h 57mn
Bit rate mode : Variable
Bit rate : 1 bps
Delay relative to video : 42ms
Stream size : 982 Bytes (0%)
Language : Russian
Encoded date : UTC 2010-11-27 03:41:42
Tagged date : UTC 2010-11-27 03:41:42
Menu
00:00:00.000 : Начало
00:01:47.000 : Начальные титры
00:07:43.046 : Омы
00:12:10.104 : Учитель Юпа
00:18:39.452 : Легенда
00:23:34.747 : Княжна Растелль
00:28:38.717 : Военные корабли Торумекия
00:33:30.175 : Призыв к объединению
00:38:15.251 : Могучий воин
00:44:57.111 : Под огнем
00:49:58.000 : Спасение
00:54:40.611 : Гнездо Омов
00:58:27.421 : Cтолкновение с насекомыми
01:01:19.426 : Очаровательное место
01:07:53.653 : Восстановление сил
01:13:51.177 : Дикие грибы
01:18:39.131 : Второй план
01:24:27.896 : Побег!
01:30:49.861 : Ёще ветра
01:34:39.340 : Травля Омов
01:40:10.129 : Спасение ребёнка
01:46:06.860 : Атака могучего война
01:49:44.036 : Навсикая и Омы
01:52:09.000 : Возрождение
01:55:04.105 : Финальные титры

Скриншоты






Приятного просмотра !!
-
МОИ РАЗДАЧИ
Могила светлячков
Ариэтти из страны лилипутов
Рыбка Поньо на утесе
Шепот сердца
Порко Россо
Наши соседи - семья Ямада

Создавать темы 17-Окт-2013 19:05

[Профиль]  [ЛС] 
Показать сообщения:    
Ответить на тему

Текущее время: 22-Окт 07:56

Часовой пояс: UTC + 5



Вы не можете начинать темы
Вы не можете отвечать на сообщения
Вы не можете редактировать свои сообщения
Вы не можете удалять свои сообщения
Вы не можете голосовать в опросах
Вы не можете прикреплять файлы к сообщениям
Вы не можете скачивать файлы