Голубая Лагуна: Пробуждение / Blue Lagoon: The Awakening (Джейк Ньюсам, Микаэль Сэломон) [2012, США, Мелодрама, WEB-DLRip] MVO

Ответить на тему
 

Suxrob89 ®

Стаж: 7 лет 1 месяц

Сообщений: 933

Симпатии: 564

-Голубая Лагуна: Пробуждение / Blue Lagoon: The Awakening- Страна: США, PeaceOut Productions, Silver Screen Pictures, Sony Pictures Television, Storyline Entertainment
Жанр: Мелодрама
Год выпуска: 2012
Продолжительность: 01:28:56
Перевод: Профессиональный (многоголосый)
Cубтитры: нет-Режиссер: Джейк Ньюсам, Микаэль Сэломон-В ролях: Индиана Эванс, Брентон Туэйтес, Дениз Ричардс, Фрэнк Джон Хьюз, Патрик Ст. Эсприт, Аликс Гиттер, Хейли Кийоко, Айми Кареро, Джейкоб Артист-Описание: В фокусе сюжетной линии двое подростков Эмма и Дин, которые оказались на необитаемом острове в Карибском море. Во время морской прогулки Эмма упала за борт корабля, и только Дин увидел это и прыгнул за ней в море. Проходят недели и молодые люди влюбляются, узнают многое о друг друге, а также познают себя.
Доп. информация: Фильм представляет современный пересказ классического любовного сюжета, предложенного ранее Рэндалом Клайзером в кинокартине "Голубая лагуна" (1980).- -Качество: WEB-DLRip
Формат: AVI
Видео кодек: XviD
Аудио кодек: AC3
Видео: 720x400 , 23.976 fps, 1997 Kbps
Аудио: 48.0 KHz, 2 ch, 192 Kbps

Media info

F:\Golubaja.laguna.2012.P.WEBDLRip.1400Mb.avi
General
Complete name : F:\Golubaja.laguna.2012.P.WEBDLRip.1400Mb.avi
Format : AVI
Format/Info : Audio Video Interleave
File size : 1.37 GiB
Duration : 1h 28mn
Overall bit rate : 2 199 Kbps
Writing application : VirtualDubMod 1.5.10.2 (build 2540/release)
Writing library : VirtualDubMod build 2540/release
Video #0
ID : 0
Format : MPEG-4 Visual
Format profile : Advanced [email protected]
Format settings, BVOP : 2
Format settings, QPel : No
Format settings, GMC : No warppoints
Format settings, Matrix : Default (MPEG)
Codec ID : XVID
Codec ID/Hint : XviD
Duration : 1h 28mn
Bit rate : 1 998 Kbps
Width : 720 pixels
Height : 400 pixels
Display aspect ratio : 16:9
Frame rate : 23.976 fps
Color space : YUV
Chroma subsampling : 4:2:0
Bit depth : 8 bits
Scan type : Progressive
Compression mode : Lossy
Bits/(Pixel*Frame) : 0.289
Stream size : 1.24 GiB (91%)
Writing library : XviD 1.2.1 (UTC 2008-12-04)
Audio #1
ID : 1
Format : AC-3
Format/Info : Audio Coding 3
Mode extension : CM (complete main)
Format settings, Endianness : Big
Codec ID : 2000
Duration : 1h 28mn
Bit rate mode : Constant
Bit rate : 192 Kbps
Channel(s) : 2 channels
Channel positions : Front: L R
Sampling rate : 48.0 KHz
Bit depth : 16 bits
Compression mode : Lossy
Stream size : 122 MiB (9%)
Alignment : Split accross interleaves
Interleave, duration : 42 ms (1.00 video frame)
Interleave, preload duration : 500 ms

Скриншоты

Создавать темы 17-Окт-2013 20:13

[Профиль]  [ЛС] 

FissleR

Стаж: 6 лет 3 месяца

Сообщений: 94

фильм с Миллой Йовович не переплюнут!

Создавать темы 17-Окт-2013 21:44

[Профиль]  [ЛС] 

Farid Marupov

Стаж: 5 лет 7 месяцев

Сообщений: 9

пожалуйста дайте скорости

Создавать темы 14-Мар-2014 17:53

[Профиль]  [ЛС] 
Показать сообщения:    
Ответить на тему

Текущее время: 21-Сен 12:05

Часовой пояс: UTC + 5



Вы не можете начинать темы
Вы не можете отвечать на сообщения
Вы не можете редактировать свои сообщения
Вы не можете удалять свои сообщения
Вы не можете голосовать в опросах
Вы не можете прикреплять файлы к сообщениям
Вы не можете скачивать файлы