Человек из стали / Man of Steel [2013 г., Фантастика, фэнтези, боевик, приключения, HDRip] [Лицензия]

Страницы :  1, 2, 3, 4  След.

Ответить на тему
 

mansurjon ®

Стаж: 7 лет 4 месяца

Сообщений: 103

Симпатии: 3

- - Орг. название: Man of steel
Год выпуска: 2013
Страна: США, Канада, Великобритания
Жанр: Фантастика, фэнтези, боевик, приключения
Продолжительность: 02:23:03
Перевод: Дублированное [лицензия]
Режиссер: Зак Снайдер
В ролях: Генри Кавилл, Эми Адамс, Майкл Шеннон, Кевин Костнер, Дайан Лэйн, Лоренс Фишбёрн, Антье Трое, Айелет Зурер, Рассел Кроу, Гарри Дж. Ленникс
Описание: Кларк Кент/Кал-Эл — молодой журналист, который чувствует себя чужаком из-за своей невероятной силы. Много лет назад он был отправлен на Землю с развитой планеты Криптон, и теперь задается вопросом: зачем? Воспитанный приемными родителями Мартой и Джонатаном Кентами, Кларк знает: обладать сверхспособностями — значит принимать сложные решения. Но когда человечество более всего нуждается в стабильности, оно подвергается нападению. Сможет ли герой восстановить мир, или воспользуется своей силой для того, чтобы окончательно его разрушить? Кларк должен стать супергероем известным как «Супермен», чтобы вселять надежду в сердца людей и защищать тех, кого он любит.- -Качество: HDRip
Формат: AVI
Видео кодек: XviD
Аудио кодек: AC3
Видео: Xvid 720x304 1592 Kbps 23.976fps
Аудио: Dolby AC3 48000Hz 6ch 448kbps

МедиаИнфо

General
Complete name : Chelovek.iz.stali.2013.D.HDRip.2100Mb_.avi
Format : AVI
Format/Info : Audio Video Interleave
Format profile : OpenDML
File size : 2.05 GiB
Duration : 2h 23mn
Overall bit rate : 2 052 Kbps
Writing application : VirtualDubMod 1.5.10.3 (build 2550/release)
Writing library : VirtualDubMod build 2550/release
Video
ID : 0
Format : MPEG-4 Visual
Format profile : Advanced [email protected]
Format settings, BVOP : 2
Format settings, QPel : No
Format settings, GMC : No warppoints
Format settings, Matrix : Custom
Codec ID : XVID
Codec ID/Hint : XviD
Duration : 2h 23mn
Bit rate : 1 592 Kbps
Width : 720 pixels
Height : 304 pixels
Display aspect ratio : 2.35:1
Frame rate : 23.976 fps
Color space : YUV
Chroma subsampling : 4:2:0
Bit depth : 8 bits
Scan type : Progressive
Compression mode : Lossy
Bits/(Pixel*Frame) : 0.303
Stream size : 1.59 GiB (78%)
Writing library : XviD 1.2.1 (UTC 2008-12-04)
Audio
ID : 1
Format : AC-3
Format/Info : Audio Coding 3
Mode extension : CM (complete main)
Format settings, Endianness : Big
Codec ID : 2000
Duration : 2h 23mn
Bit rate mode : Constant
Bit rate : 448 Kbps
Channel(s) : 6 channels
Channel positions : Front: L C R, Side: L R, LFE
Sampling rate : 48.0 KHz
Bit depth : 16 bits
Compression mode : Lossy
Stream size : 458 MiB (22%)
Alignment : Split accross interleaves
Interleave, duration : 42 ms (1.00 video frame)
Interleave, preload duration : 500 ms

Скриншоты






Последний раз редактировалось: mansurjon (2013-11-19 00:46), всего редактировалось 3 раз(а)

Создавать темы 19-Окт-2013 06:39

[Профиль]  [ЛС] 

megabyte

Стаж: 5 лет 2 месяца

Сообщений: 218

Симпатии: 69

mansurjon, если понадобится картинка вот.
[align=center][img]http://img.tas-ix.net/images/2013/3054577ef1994728848cf7ed3c0541e2.png[/img][/align]

Создавать темы 19-Окт-2013 08:41

[Профиль]  [ЛС] 

veniamin

Стаж: 6 лет 11 месяцев

Сообщений: 36

Симпатии: 1

Раздача бывает?

Создавать темы 19-Окт-2013 09:32

[Профиль]  [ЛС] 

mansurjon ®

Стаж: 7 лет 4 месяца

Сообщений: 103

Симпатии: 3

megabyte, вставил спасибо

Создавать темы 19-Окт-2013 12:41

[Профиль]  [ЛС] 

megabyte

Стаж: 5 лет 2 месяца

Сообщений: 218

Симпатии: 69

mansurjon, Вам спасибо, за релиз)))! Удачи.

Создавать темы 19-Окт-2013 14:27

[Профиль]  [ЛС] 

Nash

Стаж: 4 года 8 месяцев

Сообщений: 73

а когда ждать в FullHD ?

Создавать темы 19-Окт-2013 17:26

[Профиль]  [ЛС] 

a(R)chi

Стаж: 4 года 8 месяцев

Сообщений: 309

Симпатии: 12

Nash, вам 10г нужно?

_________________
Подпись отключена за нарушение правил форума

Создавать темы 19-Окт-2013 17:49

[Профиль]  [ЛС] 

mansurjon ®

Стаж: 7 лет 4 месяца

Сообщений: 103

Симпатии: 3

а когда ждать в FullHD ?
Nash, вам 10г нужно?
Точнее
Формат: MKV (H.264)
Качество: BDRip 1080p
Видео: 8331 kbps, 1920x800, 23.976fps
Аудио: Russian: AC3, 640 kb/s (6 ch) / English: DTS, 1509 kb/s (6 ch)
Дополнительно: Сохранены оригинальные чаптеры с Blu-Ray
Размер: 10,47 GB

Создавать темы 19-Окт-2013 17:58

[Профиль]  [ЛС] 

Nash

Стаж: 4 года 8 месяцев

Сообщений: 73

а когда ждать в FullHD ?
Nash, вам 10г нужно?
Точнее
Формат: MKV (H.264)
Качество: BDRip 1080p
Видео: 8331 kbps, 1920x800, 23.976fps
Аудио: Russian: AC3, 640 kb/s (6 ch) / English: DTS, 1509 kb/s (6 ch)
Дополнительно: Сохранены оригинальные чаптеры с Blu-Ray
Размер: 10,47 GB
Да да именно оно и нужно ))

Создавать темы 19-Окт-2013 18:26

[Профиль]  [ЛС] 

19ян73

Стаж: 5 лет 9 месяцев

Сообщений: 133

Симпатии: 2

Скачавшие уже спать пошли наверное????

Создавать темы 19-Окт-2013 23:24

[Профиль]  [ЛС] 

utas

Стаж: 4 года 11 месяцев

Сообщений: 3

Спасибо за релиз !

Создавать темы 20-Окт-2013 00:43

[Профиль]  [ЛС] 

19ян73

Стаж: 5 лет 9 месяцев

Сообщений: 133

Симпатии: 2

Столько сидов!!!!! А раздачи нет!Зажали что-ли????

Создавать темы 20-Окт-2013 13:52

[Профиль]  [ЛС] 

Alex Dancer

Стаж: 5 лет 8 месяцев

Сообщений: 181

Симпатии: 21

Ндааааа... у Голливуда совсем плохо с новыми идеями. В который раз уже выходят ремейки старых фильмов...

Создавать темы 21-Окт-2013 02:50

[Профиль]  [ЛС] 

axeman

Стаж: 4 года 10 месяцев

Сообщений: 380

Симпатии: 50

Нормальный фильм можно смотреть с детми

Создавать темы 22-Окт-2013 16:42

[Профиль]  [ЛС] 

proframus

Стаж: 3 года 10 месяцев

Сообщений: 1

Здравствуйте. Могу я узнать, почему не идет загрузка фильма?

Создавать темы 22-Окт-2013 21:03

[Профиль]  [ЛС] 
Показать сообщения:    
Ответить на тему

Текущее время: 20-Сен 19:54

Часовой пояс: UTC + 5



Вы не можете начинать темы
Вы не можете отвечать на сообщения
Вы не можете редактировать свои сообщения
Вы не можете удалять свои сообщения
Вы не можете голосовать в опросах
Вы не можете прикреплять файлы к сообщениям
Вы не можете скачивать файлы