Гадкий я 2 / Despicable Me 2 (Пьер Соффин, Крис Рено) (2013 мультфильм, комедия, криминал, семейный, BDRip) [лицензия]

Страницы :  1, 2  След.

Ответить на тему
 

Suxrob89 ®

Стаж: 7 лет 4 месяца

Сообщений: 933

Симпатии: 564

-«More minions. More despicable.»- Год выпуска: 2013
Страна: США Illumination Entertainment
Жанр: мультфильм, комедия, криминал, семейный
Продолжительность: 01:33:50
Перевод: Профессиональный (дублированный) [лицензия] -Режиссер: Пьер Соффин, Крис Рено-В ролях: Стив Карелл, Кен Жонг, Кристен Уиг, Миранда Косгров, Мойзес Ариас, Бенджамин Брэтт, Стив Куган, Расселл Брэнд, Элси Фишер, Дэна Гайер-Описание: В то время как Грю, бывший суперзлодей, приспосабливается к семейной жизни и пытается честным трудом зарабатывать в сфере бизнеса, тайные лаборатории Арктики оказываются украденными. Анти-Злодейская лига решает, что она нуждается в помощи Грю и его новобранцев в расследовании.- -Качество: BDRip
Формат: MKV
Видео кодек: XviD
Аудио кодек: AC3
Видео: 720x384 (1.875:1), 23.976 fps, XviD, 1 694 Kbps
Аудио: AC3, 448 Kbps, 6 channels, 48.0 KHz, 16 bits

Media info

F:\Gadkiy.Ya.2.2013.D.BDRip.mkv
General
Unique ID : 193625541663759027883121889217208442426 (0x91AAEC4121EBF958845733EA2D74DE3A)
Complete name : F:\Gadkiy.Ya.2.2013.D.BDRip.mkv
Format : Matroska
Format version : Version 4 / Version 2
File size : 1.50 GiB
Duration : 1h 37mn
Overall bit rate : 2 186 Kbps
Encoded date : UTC 2013-10-21 00:46:33
Writing application : mkvmerge v6.3.0 ('You can't stop me!') built on Jun 28 2013 20:09:41
Writing library : libebml v1.3.0 + libmatroska v1.4.0
Video #2
ID : 2
Format : MPEG-4 Visual
Format profile : Advanced [email protected]
Format settings, BVOP : Yes
Format settings, QPel : No
Format settings, GMC : No warppoints
Format settings, Matrix : Custom
Codec ID : V_MS/VFW/FOURCC / XVID
Codec ID/Hint : XviD
Duration : 1h 37mn
Bit rate : 1 694 Kbps
Width : 720 pixels
Height : 384 pixels
Display aspect ratio : 1.85:1
Frame rate mode : Constant
Frame rate : 23.976 fps
Color space : YUV
Chroma subsampling : 4:2:0
Bit depth : 8 bits
Scan type : Progressive
Compression mode : Lossy
Bits/(Pixel*Frame) : 0.256
Stream size : 1.16 GiB (78%)
Writing library : XviD 1.2.1 (UTC 2008-12-04)
Default : Yes
Forced : No
Audio #1
ID : 1
Format : AC-3
Format/Info : Audio Coding 3
Mode extension : CM (complete main)
Format settings, Endianness : Big
Codec ID : A_AC3
Duration : 1h 37mn
Bit rate mode : Constant
Bit rate : 448 Kbps
Channel(s) : 6 channels
Channel positions : Front: L C R, Side: L R, LFE
Sampling rate : 48.0 KHz
Bit depth : 16 bits
Compression mode : Lossy
Stream size : 314 MiB (20%)
Default : Yes
Forced : No

Скриншоты

-


Последний раз редактировалось: Suxrob89 (2017-02-23 12:03), всего редактировалось 3 раз(а)

Создавать темы 19-Окт-2013 07:11

[Профиль]  [ЛС] 

nazar9988

Стаж: 5 лет 8 месяцев

Сообщений: 18

кинотеатральный звук или совсем чистый?))

Создавать темы 19-Окт-2013 12:01

[Профиль]  [ЛС] 

albertus

Стаж: 5 лет 2 месяца

Сообщений: 11

Как с озвучкой !?Нормуль?

Создавать темы 19-Окт-2013 13:15

[Профиль]  [ЛС] 

Loky

Стаж: 4 года 5 месяцев

Сообщений: 75

Симпатии: 8

Перевод: Профессиональный (дублированный) [Чистый звук]

Создавать темы 19-Окт-2013 20:49

[Профиль]  [ЛС] 

Suxrob89 ®

Стаж: 7 лет 4 месяца

Сообщений: 933

Симпатии: 564

Торрент обновлён, озвучка лицензионный !!!

Создавать темы 21-Окт-2013 06:23

[Профиль]  [ЛС] 

barista

Стаж: 5 лет 1 месяц

Сообщений: 11

Симпатии: 6

Обалдеть. Спасибон не реальный автору!

Создавать темы 21-Окт-2013 13:57

[Профиль]  [ЛС] 

eliunt

Стаж: 4 года 9 месяцев

Сообщений: 2

заново качать

Создавать темы 22-Окт-2013 00:58

[Профиль]  [ЛС] 

sherzod1414

Стаж: 4 года 1 месяц

Сообщений: 107

Симпатии: 40

Круто !!! озвучка но сам фильм не очень
1 часть была лучше

Создавать темы 30-Окт-2013 19:36

[Профиль]  [ЛС] 

yuzza

Стаж: 4 года 6 месяцев

Сообщений: 3

ну пожж дай скорость ну пожжжжжж

Создавать темы 03-Ноя-2013 09:31

[Профиль]  [ЛС] 

vanfank

Стаж: 4 года 7 месяцев

Сообщений: 141

Симпатии: 5

Больше миньенов. Больше гадких

Создавать темы 04-Ноя-2013 19:50

[Профиль]  [ЛС] 

Mister-X

Стаж: 7 лет 1 месяц

Сообщений: 34

Чо за... скорость дайте ! 0,4кб/с это уж через чур!
чут не забыль РЕСПЕКТ Релизеру за мульт tf

Создавать темы 05-Ноя-2013 16:26

[Профиль]  [ЛС] 

hamilion

Стаж: 5 лет 2 месяца

Сообщений: 155

Симпатии: 14

Из 104 сидов нашёл всего 9
Спасибо за настройку TEREDO

Создавать темы 08-Ноя-2013 09:41

[Профиль]  [ЛС] 

delux-x

Стаж: 5 лет 3 месяца

Сообщений: 3

Спасибо автору! От детишек.

Создавать темы 12-Ноя-2013 10:05

[Профиль]  [ЛС] 

AeRoNHanD

Стаж: 5 лет 2 месяца

Сообщений: 198

Симпатии: 3

Отличный мульт)))Уржался с миньонами

Создавать темы 02-Дек-2013 16:38

[Профиль]  [ЛС] 

Master96

Стаж: 4 года 5 месяцев

Сообщений: 7

это бесплатно??

Создавать темы 10-Янв-2014 22:16

[Профиль]  [ЛС] 
Показать сообщения:    
Ответить на тему

Текущее время: 12-Дек 02:04

Часовой пояс: UTC + 5



Вы не можете начинать темы
Вы не можете отвечать на сообщения
Вы не можете редактировать свои сообщения
Вы не можете удалять свои сообщения
Вы не можете голосовать в опросах
Вы не можете прикреплять файлы к сообщениям
Вы не можете скачивать файлы