Граница пустоты: Сад грешников (фильм третий) / Kara no Kyoukai: The Garden of Sinners [Movie] [без хардсаба] [RUS(int)+JAP+SUB] [2008, триллер, мистика, ужасы] [BD-Rip 720p]

Ответить на тему
 

[email protected] ®

Стаж: 4 года 3 месяца

Сообщений: 336

Симпатии: 143

-Граница пустоты: Сад грешников (фильм третий)
Kara no Kyoukai: The Garden of Sinners
- Страна: Япония
Год выпуска: 2008 г.
Жанр: триллер, мистика, ужасы
Продолжительность: 00:57:25
Режиссер: Нонака Такуя
Автор оригинала: Насу Киноко
Студия:
-
Описание: Микия Кокуто - молодой и перспективный сотрудник магического детективного агентства «Храм Пустоты» - обладает не только гениальной интуицией, но и колоссальным даром впутываться в неприятности. А для этого нет лучшего средства, чем помочь девушке в беде, например, после нападения уличной банды. Когда же выяснилось, что красавица Фудзино Асагами (так ее звали) подруга и одноклассница его младшей сестры, Микия пошел к своему шефу, волшебнице Токо Аодзаки, с просьбой поучаствовать в судьбе новой знакомой. Токо ответила, что поучаствовать точно придется, ибо новый клиент агенства - отец Фудзино и глава рода Асагами - отказов не принимает…
Границы и мера – вот общая идея этого фильма и всего «Сада грешников». Где пределы прощения, где мера воздаяния, где грань над бездной, по которой надо идти, когда ты не такой, как все? Ох и трудно даются героям ответы на подобные вопросы… Но ведь без труда не получится шедевр!

© Hollow, World Art
-
Информационные ссылки: AniDB | World Art | ANN
-
Качество: BDRip
Формат: MKV
Тип релиза: Без хардсаба
Озвучка: Moscow City Animegroup (MVO) | А. Килька (1 VO) | Eladiel & Ray & Trouble (3VO)-Видео: 8 bit, x264, 1280x720, ~4184 Kbp, 23.976 fps
Аудио JAP: AC3, 48000Hz, ~640 Kbps, 5.1 ch
Аудио RUS 1: AC3, 48000Hz, 192 Kbps, 2 ch - MCA (в составе контейнера)
Аудио RUS 2: AC3, 48000Hz, 384 Kbps, 5.1 ch - А. Килька (в составе контейнера)
Аудио RUS 3: AC3, 48000Hz, 320 Kbps, 2 ch - Anilibria (в составе контейнера)
Субтитры Bнешние ; Язык субтитров: русский.
-

MediaInfo

General
Unique ID : 191711169643577372637560806185123883407 (0x903A3A6D3757BC40B86E14BCE97AA98F)
Complete name : F:\Video\Аниме\Gekijouban_Kara_no_Kyoukai_The_Garden_of_Sinners_[03]_[ru_jp].mkv
Format : Matroska
Format version : Version 2
File size : 2.29 GiB
Duration : 57mn 25s
Overall bit rate : 5 719 Kbps
Encoded date : UTC 2013-10-19 02:40:25
Writing application : mkvmerge v5.6.0 ('Kenya Kane') built on May 27 2012 16:44:04
Writing library : libebml v1.2.3 + libmatroska v1.3.0
Video
ID : 2
Format : AVC
Format/Info : Advanced Video Codec
Format profile : [email protected]
Format settings, CABAC : Yes
Format settings, ReFrames : 8 frames
Muxing mode : Header stripping
Codec ID : V_MPEG4/ISO/AVC
Duration : 57mn 25s
Bit rate : 4 069 Kbps
Width : 1 280 pixels
Height : 720 pixels
Display aspect ratio : 16:9
Frame rate mode : Constant
Frame rate : 23.976 fps
Color space : YUV
Chroma subsampling : 4:2:0
Bit depth : 8 bits
Scan type : Progressive
Bits/(Pixel*Frame) : 0.184
Stream size : 1.63 GiB (71%)
Writing library : x264 core 112 r1867 22bfd31
Encoding settings : cabac=1 / ref=8 / deblock=1:0:0 / analyse=0x3:0x133 / me=umh / subme=9 / psy=1 / psy_rd=0.70:0.00 / mixed_ref=1 / me_range=32 / chroma_me=1 / trellis=2 / 8x8dct=1 / cqm=0 / deadzone=21,11 / fast_pskip=0 / chroma_qp_offset=-3 / threads=12 / sliced_threads=0 / nr=0 / decimate=0 / interlaced=0 / constrained_intra=0 / bframes=10 / b_pyramid=0 / b_adapt=2 / b_bias=0 / direct=1 / weightb=1 / open_gop=0 / weightp=2 / keyint=250 / keyint_min=23 / scenecut=40 / intra_refresh=0 / rc=crf / mbtree=0 / crf=15.8 / qcomp=0.75 / qpmin=8 / qpmax=26 / qpstep=4 / ip_ratio=1.40 / pb_ratio=1.30 / aq=1:1.00
Language : English
Default : No
Forced : No
Audio #1
ID : 3
Format : AC-3
Format/Info : Audio Coding 3
Mode extension : CM (complete main)
Format settings, Endianness : Big
Muxing mode : Header stripping
Codec ID : A_AC3
Duration : 57mn 25s
Bit rate mode : Constant
Bit rate : 640 Kbps
Channel count : 6 channels
Channel positions : Front: L C R, Side: L R, LFE
Sampling rate : 48.0 KHz
Bit depth : 16 bits
Compression mode : Lossy
Stream size : 263 MiB (11%)
Language : Japanese
Default : No
Forced : No
Audio #2
ID : 4
Format : AC-3
Format/Info : Audio Coding 3
Mode extension : CM (complete main)
Format settings, Endianness : Big
Muxing mode : Header stripping
Codec ID : A_AC3
Duration : 57mn 25s
Bit rate mode : Constant
Bit rate : 320 Kbps
Channel count : 2 channels
Channel positions : Front: L R
Sampling rate : 48.0 KHz
Bit depth : 16 bits
Compression mode : Lossy
Stream size : 131 MiB (6%)
Title : Anilibria
Language : Russian
Default : No
Forced : No
Audio #3
ID : 5
Format : AC-3
Format/Info : Audio Coding 3
Mode extension : CM (complete main)
Format settings, Endianness : Big
Muxing mode : Header stripping
Codec ID : A_AC3
Duration : 57mn 25s
Bit rate mode : Constant
Bit rate : 192 Kbps
Channel count : 2 channels
Channel positions : Front: L R
Sampling rate : 48.0 KHz
Bit depth : 16 bits
Compression mode : Lossy
Stream size : 78.9 MiB (3%)
Title : MVO Moscow City Animegroup
Language : Russian
Default : Yes
Forced : No
Audio #4
ID : 6
Format : AC-3
Format/Info : Audio Coding 3
Mode extension : CM (complete main)
Format settings, Endianness : Big
Muxing mode : Header stripping
Codec ID : A_AC3
Duration : 57mn 25s
Bit rate mode : Constant
Bit rate : 384 Kbps
Channel count : 6 channels
Channel positions : Front: L C R, Side: L R, LFE
Sampling rate : 48.0 KHz
Bit depth : 16 bits
Compression mode : Lossy
Stream size : 158 MiB (7%)
Title : Kilka
Language : Russian
Default : No
Forced : No

Скриншоты




Источник

rutracker.org


Последний раз редактировалось: [email protected] (2015-04-24 21:26), всего редактировалось 2 раз(а)

Создавать темы 19-Окт-2013 08:30

[Профиль]  [ЛС] 

Хамидулла

Стаж: 5 лет 9 месяцев

Сообщений: 60

Симпатии: 1

супер спасибо

_________________
Подпись отключена за нарушение правил форума

Создавать темы 19-Окт-2013 09:08

[Профиль]  [ЛС] 

Азиз87

Стаж: 4 года 11 месяцев

Сообщений: 752

Симпатии: 143

Всем привет , а Кто знает с какой ONA -ы надо начинать смотреть т.к. сюжет 1-го фильма кидает смотрящего далеко от истока сюжета. СПС за релиз [email protected] ® надеюсь что на очереди у Вас будет и ПРОЛОГ(!)- эпизод.

Создавать темы 22-Окт-2013 19:48

[Профиль]  [ЛС] 

vovan.kim95

Стаж: 5 лет 9 месяцев

Сообщений: 117

Азиз87,
1. Фильм-2 - Обдумывание убийства (Часть I) / A Study in Murder (Part 1) / Satsujin Kousatsu (Zen)
2. Фильм-4 - Храм Пустоты / The Hollow Shrine / Garan no Dou
3. Фильм-3 - Оставшееся чувство боли / Remaining Sense of Pain / Tsuukaku Zanryuu
4. Фильм-1 - Вид свысока / Overlooking View / Fukan Fuukei
5. Фильм-5 - Спираль парадокса / Paradox Spiral / Mujun Rasen
6. Фильм-6 - Записи забвения / Oblivion Recorder / Boukyaku Rokuon
7. Kara no Kyoukai Remix
8. Фильм-7 - Обдумывание убийства (Часть II) / A Study in Murder (Part 2) / Satsujin Kousatsu (Go)
9. OVA

Создавать темы 22-Окт-2013 20:39

[Профиль]  [ЛС] 

Азиз87

Стаж: 4 года 11 месяцев

Сообщений: 752

Симпатии: 143

Понятно тогда начну смотреть 2 и 4 фильмы, ато осмыслить полностью более 1ч 45м пока будет трудновато, да и клип на "зачет" LAST -lost- WAY ALT

Создавать темы 22-Окт-2013 21:51

[Профиль]  [ЛС] 

[email protected] ®

Стаж: 4 года 3 месяца

Сообщений: 336

Симпатии: 143

Азиз87, там хронология действительно немного запутана, но так даже, на мой взгляд, интереснее.
Если под прологом имеется ввиду ОВА (т.е. Эпилог), то да выложу!
P.S. а клип реально "зачетный"))

Создавать темы 22-Окт-2013 23:01

[Профиль]  [ЛС] 

rikimaruxxx

Стаж: 5 лет 3 месяца

Сообщений: 254

Симпатии: 42

что там с русскими дорожками от moscow city animegroup ? ээ запутался анилибрии

Создавать темы 22-Окт-2013 23:29

[Профиль]  [ЛС] 

[email protected] ®

Стаж: 4 года 3 месяца

Сообщений: 336

Симпатии: 143

RIKIMARUXXX, совсем забыл :tm:
Как только закину в ФО, пришлю ссылку в ЛС.
Скорее всего завтра, на крайняк в четверг

Создавать темы 22-Окт-2013 23:33

[Профиль]  [ЛС] 

rikimaruxxx

Стаж: 5 лет 3 месяца

Сообщений: 254

Симпатии: 42

[email protected], я думал там озвучат Valkrist ,MifSnaiper, KroshkaRu и NASTR кажись другие участники группы озвучили поэтому лучше скинь озвучку от либрии пожалуйста

Создавать темы 22-Окт-2013 23:37

[Профиль]  [ЛС] 
Показать сообщения:    
Ответить на тему

Текущее время: 23-Окт 07:42

Часовой пояс: UTC + 5



Вы не можете начинать темы
Вы не можете отвечать на сообщения
Вы не можете редактировать свои сообщения
Вы не можете удалять свои сообщения
Вы не можете голосовать в опросах
Вы не можете прикреплять файлы к сообщениям
Вы не можете скачивать файлы