ЗЛО 2 / V/H/S/2 (Джейсон Айзенер, Гарет Эванс, Саймон Баррет) [2013., Триллер, Ужасы, HDRip] [Лицензия]

Ответить на тему
 

Freezy# ®

Стаж: 4 года

Сообщений: 46

Симпатии: 1

ЗЛО 2
V/H/S/2

Год выпуска: 2013
Страна: Канада, США, Индонезия
Жанр: Триллер, Ужасы
Продолжительность: 01:35:41
Перевод: Дублированный [лицензия]-Режиссер: Джейсон Айзенер, Гарет Эванс, Саймон Баррет
Сценаристы: Джейсон Айзенер, Джон Дейвис, Саймон Баррет
Продюсеры: Гари Бинкоу, Роб Коттерилл, Роксанна Бенжамин-В ролях: Келси Эбботт, Ханна Аль Рашид, Фахри Албар, Ока Антара, Девон Мари Берт, Саманта Грейси, Коллинз Холт, Ханна Хьюз, Кевин Хант, Эпи Куснандар-Описание: В поисках пропавшего студента, пара частных детективов вламывается в его дом, где они находят коллекцию кассет VHS. Обнаружив ужасающие кадры на каждой из них, они понимают, что за исчезновением студента кроются страшные мотивы…-Дополнительная информация:

Рейтинг КиноПоиск.Ru: 5.397 (1808)
Рейтинг IMDb: 6.1 (8409)-Качество: HDRip
Формат: AVI
Видео кодек: XviD
Аудио кодек: AC3
Видео: 720x400 23.976fps 1916 Kbps
Аудио: 256 Kbps, 6 channels, 48.0 KHz

MediaInfo

General
Complete name : D:\Films\New\ZL0.2.2013.D.HDRip.avi
Format : AVI
Format/Info : Audio Video Interleave
File size : 1.46 GiB
Duration : 1h 35mn
Overall bit rate : 2 181 Kbps
Writing application : VirtualDubMod 1.5.10.2 (build 2540/release)
Writing library : VirtualDubMod build 2540/release
Video
ID : 0
Format : MPEG-4 Visual
Format profile : Advanced [email protected]
Format settings, BVOP : 2
Format settings, QPel : No
Format settings, GMC : No warppoints
Format settings, Matrix : Default (MPEG)
Codec ID : XVID
Codec ID/Hint : XviD
Duration : 1h 35mn
Bit rate : 1 916 Kbps
Width : 720 pixels
Height : 400 pixels
Display aspect ratio : 16:9
Frame rate : 23.976 fps
Color space : YUV
Chroma subsampling : 4:2:0
Bit depth : 8 bits
Scan type : Progressive
Compression mode : Lossy
Bits/(Pixel*Frame) : 0.277
Stream size : 1.28 GiB (88%)
Writing library : XviD 1.2.1 (UTC 2008-12-04)
Audio
ID : 1
Format : AC-3
Format/Info : Audio Coding 3
Mode extension : CM (complete main)
Codec ID : 2000
Duration : 1h 35mn
Bit rate mode : Constant
Bit rate : 256 Kbps
Channel(s) : 6 channels
Channel positions : Front: L C R, Side: L R, LFE
Sampling rate : 48.0 KHz
Bit depth : 16 bits
Compression mode : Lossy
Stream size : 175 MiB (12%)
Alignment : Split accross interleaves
Interleave, duration : 42 ms (1.00 video frame)
Interleave, preload duration : 500 ms

ScreenShots



Последний раз редактировалось: Freezy# (2013-10-20 03:10), всего редактировалось 1 раз

Создавать темы 20-Окт-2013 00:01

[Профиль]  [ЛС] 

Freezy# ®

Стаж: 4 года

Сообщений: 46

Симпатии: 1

приятного просмотра

Создавать темы 20-Окт-2013 00:12

[Профиль]  [ЛС] 

Freezy# ®

Стаж: 4 года

Сообщений: 46

Симпатии: 1

Да и кстати хотел сказать.
вот это http://tas-ix.net/viewtopic.php?t=78814 с этим совсем другие релизы
И это не повтор так случилось что он тоже HD и размеры одинаковые. Но тех данные разные и озвучка тоже

Создавать темы 20-Окт-2013 00:22

[Профиль]  [ЛС] 

СтАсИкОс

Стаж: 6 лет 9 месяцев

Сообщений: 314

Симпатии: 20

Freezy#, Самое главное отличие в том, что там не лицензия!

Создавать темы 20-Окт-2013 03:08

[Профиль]  [ЛС] 

Freezy# ®

Стаж: 4 года

Сообщений: 46

Симпатии: 1

СтАсИкОс, не только. Тех данные другие
бит рейты, аудио биты. И + лицуха

Создавать темы 20-Окт-2013 10:25

[Профиль]  [ЛС] 

Javlon55

Стаж: 4 года 6 месяцев

Сообщений: 2

Симпатии: 1

Дайте короти плиииииззззззз

Создавать темы 06-Фев-2014 08:01

[Профиль]  [ЛС] 

Lucky Line

Стаж: 3 года 8 месяцев

Сообщений: 43

Симпатии: 48

skorost dayte

Создавать темы 28-Дек-2016 23:21

[Профиль]  [ЛС] 
Показать сообщения:    
Ответить на тему

Текущее время: 21-Окт 00:43

Часовой пояс: UTC + 5



Вы не можете начинать темы
Вы не можете отвечать на сообщения
Вы не можете редактировать свои сообщения
Вы не можете удалять свои сообщения
Вы не можете голосовать в опросах
Вы не можете прикреплять файлы к сообщениям
Вы не можете скачивать файлы