Армагеддец / The World's End (Эдгар Райт) (фантастика, боевик, комедия, 2013 г. HDRip) [Лицензия]

Ответить на тему
 

Suxrob89 ®

Стаж: 7 лет 3 месяца

Сообщений: 933

Симпатии: 564

-Армагеддец / The World's End- Год выхода: 2013
Страна: Великобритания
Жанр: фантастика, боевик, комедия
Продолжительность: 01:49:07
Перевод: Дублированное [Лицензия]-Режиссер: Эдгар Райт / Edgar Wright-В ролях: Саймон Пегг, Ник Фрост, Пэдди Консидайн, Мартин Фриман, Эдди Марсан, Розамунд Пайк, Томас Ло, Захари Бэйлесс, Джаспер Ливайн, Джеймс Тарпи-О фильме: Их подвиг был бы увековечен в книге рекордов Гиннеса, если бы они знали, что Гиннесс — это не только пиво. Пятеро друзей ставят себе высокую цель — организовать грандиозный забег по барам. Опасности подстерегают их на каждом шагу: красотка, от которой сходила с ума вся школа, так и тянет налево, в то время как справа надвигается таинственная угроза. В результате алкомарафон плавно переходит в реальный Армагеддец…- -Качество: HDRip
Формат: AVI (XviD)
Видео: XviD, 1401 Кбит/с, 720x304
Аудио: Русский,(AC3, 6 ch, 448 Кбит/с)

Media info

D:\Armageddz.2013.D.HDRip.1400MB.avi
General
Complete name : D:\Armageddz.2013.D.HDRip.1400MB.avi
Format : AVI
Format/Info : Audio Video Interleave
File size : 1.42 GiB
Duration : 1h 49mn
Overall bit rate : 1 857 Kbps
Movie name : Armageddz.2013.D.HDRip_1400MB
Director : àì64
Writing application : VirtualDubModRus 1.5.10.2 (build 2542/release)
Writing library : VirtualDubMod build 2542/release
Video #0
ID : 0
Format : MPEG-4 Visual
Format profile : Advanced [email protected]
Format settings, BVOP : 2
Format settings, QPel : No
Format settings, GMC : No warppoints
Format settings, Matrix : Custom
Codec ID : XVID
Codec ID/Hint : XviD
Duration : 1h 49mn
Bit rate : 1 400 Kbps
Width : 720 pixels
Height : 304 pixels
Display aspect ratio : 2.35:1
Frame rate : 23.976 fps
Color space : YUV
Chroma subsampling : 4:2:0
Bit depth : 8 bits
Scan type : Progressive
Compression mode : Lossy
Bits/(Pixel*Frame) : 0.267
Stream size : 1.07 GiB (75%)
Writing library : XviD 1.2.1 (UTC 2008-12-04)
Audio #1
ID : 1
Format : AC-3
Format/Info : Audio Coding 3
Mode extension : CM (complete main)
Format settings, Endianness : Big
Codec ID : 2000
Duration : 1h 49mn
Bit rate mode : Constant
Bit rate : 448 Kbps
Channel(s) : 6 channels
Channel positions : Front: L C R, Side: L R, LFE
Sampling rate : 48.0 KHz
Bit depth : 16 bits
Compression mode : Lossy
Stream size : 350 MiB (24%)
Alignment : Split accross interleaves
Interleave, duration : 42 ms (1.00 video frame)
Interleave, preload duration : 500 ms

Скриншоты



Последний раз редактировалось: Suxrob89 (2014-01-18 06:51), всего редактировалось 5 раз(а)

Создавать темы 20-Окт-2013 11:01

[Профиль]  [ЛС] 

pashu_uz

Стаж: 4 года 6 месяцев

Сообщений: 126

Симпатии: 25

перевод отстой

_________________
Подпись отключена за нарушение правил форума

Создавать темы 20-Окт-2013 12:33

[Профиль]  [ЛС] 

skydream

Стаж: 4 года 9 месяцев

Сообщений: 65

тв3? если да то качать не буду))) а так название интригующее

Создавать темы 21-Окт-2013 08:44

[Профиль]  [ЛС] 

4niko

Стаж: 7 лет

Сообщений: 78

Симпатии: 11

Нет это не ТВ3
Отличный фильм от английских комиков.

Создавать темы 21-Окт-2013 21:14

[Профиль]  [ЛС] 

aleksman

Стаж: 6 лет 4 месяца

Сообщений: 52

Симпатии: 2

фильм то нормальный. перевод бы хороший.

Создавать темы 25-Окт-2013 21:20

[Профиль]  [ЛС] 

Loky

Стаж: 4 года 4 месяца

Сообщений: 75

Симпатии: 8

как может быть ТВ3:Жанр: фантастика, боевик, комедия
И тем более Страна: Великобритания:)

Создавать темы 22-Янв-2014 10:53

[Профиль]  [ЛС] 

Star Line

Стаж: 4 года 1 месяц

Сообщений: 136

Симпатии: 26

Loky, в Великобритании тоже делают хорошие фильмы. насчет этого не знаю.

Создавать темы 23-Янв-2014 19:57

[Профиль]  [ЛС] 

Star Line

Стаж: 4 года 1 месяц

Сообщений: 136

Симпатии: 26

Меня волнует другое. когда наконец я посмотрю этот фильм. то есть когда докачаю. с момента релиза не могу скачать.

Создавать темы 23-Янв-2014 19:58

[Профиль]  [ЛС] 

Loky

Стаж: 4 года 4 месяца

Сообщений: 75

Симпатии: 8

Внешка тебе в помощь)

Создавать темы 23-Янв-2014 23:38

[Профиль]  [ЛС] 
Показать сообщения:    
Ответить на тему

Текущее время: 19-Ноя 10:08

Часовой пояс: UTC + 5



Вы не можете начинать темы
Вы не можете отвечать на сообщения
Вы не можете редактировать свои сообщения
Вы не можете удалять свои сообщения
Вы не можете голосовать в опросах
Вы не можете прикреплять файлы к сообщениям
Вы не можете скачивать файлы