Гадкий я 2 / Despicable Me 2 (Крис Рено, Пьер Соффин) [2013 г., Комедия, Криминал, Мультфильм, Приключения, Семейный, Фантастика, BDRip, HD (720p)] Dub + Original (Eng)

Ответить на тему
 

vea62 ®

Стаж: 5 лет 2 месяца

Сообщений: 31

Симпатии: 3

Гадкий я 2 / Despicable Me 2
Год выпуска: 2013
Страна: США
Жанр: Комедия, Криминал, Мультфильм, Приключения, Семейный, Фантастика
Продолжительность: 01:37:58
Перевод: Профессиональный (полное дублирование)
Режиссёры: Крис Рено, Пьер Соффин
В ролях: Бенджамин Брэтт, Кен Жонг, Кристен Уиг, Мойзес Ариас, Расселл Брэнд, Стив Карелл, Миранда Косгров, Стив Куган, Элси Фишер, Дэна Гайер
Описание: В то время как Грю, бывший суперзлодей, приспосабливается к семейной жизни и пытается честным трудом зарабатывать в сфере бизнеса, тайные лаборатории Арктики оказываются украденными. Анти-Злодейская лига решает, что она нуждается в помощи Грю и его новобранцев в расследовании.
Доп. информация:
Рейтинг КиноПоиск.Ru: 7.895 (26509)
Рейтинг IMDb: 7.7 (83661)
Качество: BDRip
Формат: MKV
Видео кодек: MPEG2
Аудио кодек: DTS
Видео: 1280x692 (HD), AVC, 4980 Kbps
Аудио #1: DTS, 754 Kbps, 6 channels, 48.0 KHz, rus
Аудио #2: AC-3, 640 Kbps, 6 channels, 48.0 KHz, eng
Субтитры: rus (Forced), rus, eng

Скриншоты




MediaInfo

Общее
Уникальный идентификатор : 241986249599647239006126168511227396377 (0xB60CDB3E903E0D15AF76880970448119)
Полное имя : C:\Downloads\Видео\Despicable Me 2BDRip 720p.mkv
Формат : Matroska
Версия формата : Version 4 / Version 2
Размер файла : 4,37 Гбайт
Продолжительность : 1 ч. 37 м.
Общий поток : 6390 Кбит/сек
Название фильма : Despicable.Me.2.2013.Blu-ray.720p.x264-NiP
Дата кодирования : UTC 2013-10-19 09:01:57
Программа кодирования : mkvmerge v6.4.1 ('Omega Point') built on Sep 16 2013 22:05:10
Библиотека кодирования : libebml v1.3.0 + libmatroska v1.4.1
Видео
Идентификатор : 1
Формат : AVC
Формат/Информация : Advanced Video Codec
Профиль формата : [email protected]
Параметр CABAC формата : Да
Параметр ReFrames формата : 9 кадров
Идентификатор кодека : V_MPEG4/ISO/AVC
Продолжительность : 1 ч. 37 м.
Битрейт : 4980 Кбит/сек
Ширина : 1280 пикселей
Высота : 692 пикселя
Соотношение сторон : 1,85:1
Режим частоты кадров : Постоянный
Частота кадров : 23,976 кадра/сек
Цветовое пространство : YUV
Субдискретизация насыщенности : 4:2:0
Битовая глубина : 8 бит
Тип развёртки : Прогрессивная
Бит/(Пиксели*Кадры) : 0.234
Размер потока : 3,32 Гбайт (76%)
Библиотека кодирования : x264 core 138 r2358 9e941d1
Настройки программы : cabac=1 / ref=9 / deblock=1:-1:-1 / analyse=0x3:0x113 / me=tesa / subme=11 / psy=1 / psy_rd=1.00:0.00 / mixed_ref=1 / me_range=24 / chroma_me=1 / trellis=2 / 8x8dct=1 / cqm=0 / deadzone=21,11 / fast_pskip=0 / chroma_qp_offset=-2 / threads=12 / lookahead_threads=2 / sliced_threads=0 / nr=0 / decimate=0 / interlaced=0 / bluray_compat=0 / constrained_intra=0 / bframes=7 / b_pyramid=2 / b_adapt=2 / b_bias=0 / direct=3 / weightb=1 / open_gop=0 / weightp=2 / keyint=240 / keyint_min=24 / scenecut=40 / intra_refresh=0 / rc_lookahead=150 / rc=2pass / mbtree=0 / bitrate=4980 / ratetol=1.0 / qcomp=0.65 / qpmin=0 / qpmax=69 / qpstep=4 / cplxblur=20.0 / qblur=0.5 / vbv_maxrate=50000 / vbv_bufsize=62500 / nal_hrd=none / ip_ratio=1.30 / pb_ratio=1.20 / aq=1:0.80
Язык : English
Default : Да
Forced : Нет
Коэффициенты матрицы : BT.709
Аудио #1
Идентификатор : 2
Формат : DTS
Формат/Информация : Digital Theater Systems
Режим : 16
Параметр Endianness формата : Big
Идентификатор кодека : A_DTS
Продолжительность : 1 ч. 37 м.
Вид битрейта : Постоянный
Битрейт : 768 Кбит/сек
Каналы : 6 каналов
Расположение каналов : Front: L C R, Side: L R, LFE
Частота : 48,0 КГц
Битовая глубина : 24 бит
Метод сжатия : С потерями
Размер потока : 538 Мбайт (12%)
Язык : Russian
Default : Да
Forced : Нет
Аудио #2
Идентификатор : 3
Формат : AC-3
Формат/Информация : Audio Coding 3
Расширение режима : CM (complete main)
Параметр Endianness формата : Big
Идентификатор кодека : A_AC3
Продолжительность : 1 ч. 37 м.
Вид битрейта : Постоянный
Битрейт : 640 Кбит/сек
Каналы : 6 каналов
Расположение каналов : Front: L C R, Side: L R, LFE
Частота : 48,0 КГц
Битовая глубина : 16 бит
Метод сжатия : С потерями
Размер потока : 449 Мбайт (10%)
Язык : English
Default : Нет
Forced : Нет
Текст #1
Идентификатор : 4
Формат : UTF-8
Идентификатор кодека : S_TEXT/UTF8
Идентификатор кодека/Информация : UTF-8 Plain Text
Заголовок : Forced
Язык : Russian
Default : Да
Forced : Нет
Текст #2
Идентификатор : 5
Формат : UTF-8
Идентификатор кодека : S_TEXT/UTF8
Идентификатор кодека/Информация : UTF-8 Plain Text
Язык : Russian
Default : Нет
Forced : Нет
Текст #3
Идентификатор : 6
Формат : UTF-8
Идентификатор кодека : S_TEXT/UTF8
Идентификатор кодека/Информация : UTF-8 Plain Text
Язык : English
Default : Нет
Forced : Нет
Меню
00:00:00.000 : en:Chapter 1
00:03:22.994 : en:Chapter 2
00:08:04.734 : en:Chapter 3
00:15:50.867 : en:Chapter 4
00:18:28.232 : en:Chapter 5
00:24:36.892 : en:Chapter 6
00:30:50.724 : en:Chapter 7
00:34:40.704 : en:Chapter 8
00:40:48.279 : en:Chapter 9
00:46:26.200 : en:Chapter 10
00:51:23.122 : en:Chapter 11
00:56:27.426 : en:Chapter 12
01:00:00.472 : en:Chapter 13
01:03:27.053 : en:Chapter 14
01:08:44.078 : en:Chapter 15
01:14:01.979 : en:Chapter 16
01:18:08.058 : en:Chapter 17
01:22:33.907 : en:Chapter 18
01:27:09.099 : en:Chapter 19
01:30:33.720 : en:Chapter 20


Последний раз редактировалось: vea62 (2013-10-21 17:37), всего редактировалось 1 раз

Создавать темы 21-Окт-2013 15:17

[Профиль]  [ЛС] 

Grock

Стаж: 6 лет 10 месяцев

Сообщений: 637

Симпатии: 113

vea62, Добавьте Медиа Инфо пожалуйста

Создавать темы 21-Окт-2013 17:25

[Профиль]  [ЛС] 

vea62 ®

Стаж: 5 лет 2 месяца

Сообщений: 31

Симпатии: 3

vea62, Добавьте Медиа Инфо пожалуйста
OK.

Создавать темы 21-Окт-2013 17:37

[Профиль]  [ЛС] 

ne0d1n

Стаж: 7 лет 2 месяца

Сообщений: 64

Симпатии: 14

модеры, ау!

Создавать темы 21-Окт-2013 18:21

[Профиль]  [ЛС] 

odamcha

Стаж: 7 лет 8 месяцев

Сообщений: 137

Симпатии: 13

vea62, Отсутствует звук в Английской дорожке, как исправить?

Создавать темы 24-Окт-2013 23:18

[Профиль]  [ЛС] 

Monroe

Стаж: 4 года 6 месяцев

Сообщений: 220

Симпатии: 62

pc Большое спасибо! pc Мультфильм очень понравилось. Респект автору ay

Создавать темы 27-Окт-2013 10:54

[Профиль]  [ЛС] 

vea62 ®

Стаж: 5 лет 2 месяца

Сообщений: 31

Симпатии: 3

vea62, Отсутствует звук в Английской дорожке, как исправить?
Так бывает на таких проигрывателях, как KMP и т.п. из-за двух и более дорожек разного формата в одном медиафайле (в данном случае DTS и AC-3). Честно говоря, так и не понял как на KMP решить эту проблему, но могу только посоветовать установить другой проигрыватель, например XBMC.

Создавать темы 27-Окт-2013 16:06

[Профиль]  [ЛС] 

odamcha

Стаж: 7 лет 8 месяцев

Сообщений: 137

Симпатии: 13

Так бывает на таких проигрывателях, как KMP и т.п. из-за двух и более дорожек разного формата в одном медиафайле (в данном случае DTS и AC-3). Честно говоря, так и не понял как на KMP решить эту проблему, но могу только посоветовать установить другой проигрыватель, например XBMC.
Спасиб, установил звук появился ;-)

Создавать темы 02-Ноя-2013 07:29

[Профиль]  [ЛС] 

mal4ik

Стаж: 4 года

Сообщений: 15

pls guys dayti skorost ;-(

Создавать темы 17-Дек-2013 00:43

[Профиль]  [ЛС] 

Редкий Татарин

Стаж: 3 года 10 месяцев

Сообщений: 29

скорости дайте пожалуста

Создавать темы 29-Янв-2014 01:12

[Профиль]  [ЛС] 
Показать сообщения:    
Ответить на тему

Текущее время: 16-Дек 23:40

Часовой пояс: UTC + 5



Вы не можете начинать темы
Вы не можете отвечать на сообщения
Вы не можете редактировать свои сообщения
Вы не можете удалять свои сообщения
Вы не можете голосовать в опросах
Вы не можете прикреплять файлы к сообщениям
Вы не можете скачивать файлы