Человек из стали / Man of Steel (Зак Снайдер) [2013 г., Боевик, Приключения, Фантастика, Фэнтези, BDRip, Full HD (1080p)]

Ответить на тему
 

vea62 ®

Стаж: 5 лет

Сообщений: 31

Симпатии: 3

Человек из стали / Man of Steel
Год выпуска: 2013
Страна: Великобритания, Канада, США
Жанр: Боевик, Приключения, Фантастика, Фэнтези
Продолжительность: 02:23:03
Перевод: Профессиональный (полное дублирование)
Режиссер: Зак Снайдер
В ролях: Гарри Дж. Ленникс, Генри Кавилл, Дайан Лэйн, Кевин Костнер, Кристофер Мелони, Лоренс Фишбёрн, Майкл Шеннон, Рассел Кроу, Эми Адамс, Антье Трауэ
Описание: Кларк Кент/Кал-Эл — молодой человек, который чувствует себя чужаком из-за своей невероятной силы. Много лет назад он был отправлен на Землю с развитой планеты Криптон, и теперь задается вопросом: зачем?
Воспитанный приемными родителями Мартой и Джонатаном Кентами, Кларк знает: обладать сверхспособностями — значит принимать сложные решения. Но когда человечество более всего нуждается в стабильности, оно подвергается нападению. Сможет ли герой восстановить мир, или воспользуется своей силой для того, чтобы окончательно его разрушить?
Доп. информация:
Бюджет: $225 000 000
Рейтинг КиноПоиск.Ru: 7.346 (38127)
Рейтинг IMDb: 7.6 (243184)
Качество: BDRip
Формат: MKV
Видео кодек: MPEG2
Аудио кодек: AC3
Видео: 1920x800 (Full HD), AVC, 8331 Kbps
Аудио #1: AC-3, 640 Kbps, 6 channels, 48.0 KHz, rus
Аудио #2: DTS, 1510 Kbps, 6 channels, 48.0 KHz, eng
Субтитры: Нет

Скриншоты




MediaInfo

Общее
Уникальный идентификатор : 228894039465582891282578804268642422542 (0xAC336372C29DBF54A6C60DB7D3F14F0E)
Полное имя : C:\Downloads\Видео\Chelovek.iz.Stali.2013.DUAL.BDRip.1080p.CoolDX.mkv
Формат : Matroska
Версия формата : Version 2
Размер файла : 10,5 Гбайт
Продолжительность : 2 ч. 23 м.
Общий поток : 10,5 Мбит/сек
Дата кодирования : UTC 2013-10-18 16:03:24
Программа кодирования : mkvmerge v5.8.0 ('No Sleep / Pillow') built on Sep 2 2012 15:37:04
Библиотека кодирования : libebml v1.2.3 + libmatroska v1.3.0
Видео
Идентификатор : 1
Формат : AVC
Формат/Информация : Advanced Video Codec
Профиль формата : [email protected]
Параметр CABAC формата : Да
Параметр ReFrames формата : 5 кадров
Идентификатор кодека : V_MPEG4/ISO/AVC
Продолжительность : 2 ч. 23 м.
Битрейт : 8331 Кбит/сек
Ширина : 1920 пикселей
Высота : 800 пикселей
Соотношение сторон : 2,40:1
Режим частоты кадров : Постоянный
Частота кадров : 23,976 кадра/сек
Цветовое пространство : YUV
Субдискретизация насыщенности : 4:2:0
Битовая глубина : 8 бит
Тип развёртки : Прогрессивная
Бит/(Пиксели*Кадры) : 0.226
Размер потока : 8,11 Гбайт (77%)
Библиотека кодирования : x264 core 138 r2358 9e941d1
Настройки программы : cabac=1 / ref=5 / deblock=1:0:0 / analyse=0x3:0x133 / me=umh / subme=8 / psy=1 / psy_rd=1.00:0.00 / mixed_ref=1 / me_range=16 / chroma_me=1 / trellis=1 / 8x8dct=1 / cqm=0 / deadzone=21,11 / fast_pskip=0 / chroma_qp_offset=-2 / threads=24 / lookahead_threads=4 / sliced_threads=0 / nr=0 / decimate=1 / interlaced=0 / bluray_compat=0 / constrained_intra=0 / bframes=3 / b_pyramid=2 / b_adapt=1 / b_bias=0 / direct=1 / weightb=1 / open_gop=0 / weightp=2 / keyint=250 / keyint_min=23 / scenecut=40 / intra_refresh=0 / rc=2pass / mbtree=0 / bitrate=8331 / ratetol=1.0 / qcomp=0.60 / qpmin=0 / qpmax=69 / qpstep=4 / cplxblur=20.0 / qblur=0.5 / ip_ratio=1.40 / pb_ratio=1.30 / aq=1:1.00
Язык : English
Default : Да
Forced : Нет
Аудио #1
Идентификатор : 2
Формат : AC-3
Формат/Информация : Audio Coding 3
Расширение режима : CM (complete main)
Параметр Endianness формата : Big
Идентификатор кодека : A_AC3
Продолжительность : 2 ч. 23 м.
Вид битрейта : Постоянный
Битрейт : 640 Кбит/сек
Каналы : 6 каналов
Расположение каналов : Front: L C R, Side: L R, LFE
Частота : 48,0 КГц
Битовая глубина : 16 бит
Метод сжатия : С потерями
Размер потока : 655 Мбайт (6%)
Язык : Russian
Default : Да
Forced : Нет
Аудио #2
Идентификатор : 3
Формат : DTS
Формат/Информация : Digital Theater Systems
Режим : 16
Параметр Endianness формата : Big
Идентификатор кодека : A_DTS
Продолжительность : 2 ч. 23 м.
Вид битрейта : Постоянный
Битрейт : 1509 Кбит/сек
Каналы : 6 каналов
Расположение каналов : Front: L C R, Side: L R, LFE
Частота : 48,0 КГц
Битовая глубина : 24 бит
Метод сжатия : С потерями
Размер потока : 1,51 Гбайт (14%)
Заголовок : English
Язык : English
Default : Нет
Forced : Нет
Меню
00:00:00.000 : en:00:00:00.000
00:11:16.968 : en:00:11:16.968
00:20:01.450 : en:00:20:01.450
00:30:09.474 : en:00:30:09.474
00:39:21.609 : en:00:39:21.609
00:48:57.643 : en:00:48:57.643
00:59:03.415 : en:00:59:03.415
01:08:57.884 : en:01:08:57.884
01:17:35.109 : en:01:17:35.109
01:28:36.186 : en:01:28:36.186
01:40:47.792 : en:01:40:47.792
01:50:55.858 : en:01:50:55.858
02:00:53.580 : en:02:00:53.580
02:10:13.556 : en:02:10:13.556
02:12:49.920 : en:02:12:49.920

Создавать темы 21-Окт-2013 17:24

[Профиль]  [ЛС] 

Georgiy

Стаж: 7 лет 5 месяцев

Сообщений: 57

Симпатии: 5

А нету возможности выложить рип примерно на 4.7 Г?

Создавать темы 24-Окт-2013 00:49

[Профиль]  [ЛС] 

DonCorleone

Стаж: 5 лет 10 месяцев

Сообщений: 17

vea62, dayte razdachu. uje 7 den kachayu. dayte skorost pliz.

Создавать темы 30-Янв-2014 17:07

[Профиль]  [ЛС] 

siyovush101

Стаж: 3 года 8 месяцев

Сообщений: 205

Симпатии: 71

Лайк Поставлен! Спасибо за Релиз

Создавать темы 06-Апр-2014 22:57

[Профиль]  [ЛС] 

siyovush101

Стаж: 3 года 8 месяцев

Сообщений: 205

Симпатии: 71

вообще есть мнения? понравилось кому? сюжет спец эффекты?)

Создавать темы 07-Апр-2014 00:44

[Профиль]  [ЛС] 

yusuf.0088

Стаж: 4 года

Сообщений: 116

Симпатии: 69

808335вообще есть мнения? понравилось кому? сюжет спец эффекты?)
Зак Снайдер обиделся бы))
Спецэффекты просто на высоте! Сюжет тоже очень хорош. Фильм потрясающий, не может не понравиться.
Я не обо всех фильмах так отзываюсь)
P.S. правда рипчик так себе...

Создавать темы 07-Апр-2014 01:58

[Профиль]  [ЛС] 

siyovush101

Стаж: 3 года 8 месяцев

Сообщений: 205

Симпатии: 71

808358
808335вообще есть мнения? понравилось кому? сюжет спец эффекты?)
Зак Снайдер обиделся бы))
Спецэффекты просто на высоте! Сюжет тоже очень хорош. Фильм потрясающий, не может не понравиться.
Я не обо всех фильмах так отзываюсь)
P.S. правда рипчик так себе...
Нуссс Собественно говоряссс Потому и качаю....увидел как Зак Вышибается и понял...новое поколение спец эффектных оборотов пришло! а Ведь Всё Начиналось Когдато С Матрицы)))

Создавать темы 07-Апр-2014 09:52

[Профиль]  [ЛС] 

siyovush101

Стаж: 3 года 8 месяцев

Сообщений: 205

Симпатии: 71

Одним Словом 225 Лямов было Потрачено не Зря___))) кстати а почему Рипчик Так Себе? Качество не очень? или не тянет на 10.5 гб с таким качеством!? по крайне мере хорошо что кроме HDRip есть и этот))

Создавать темы 07-Апр-2014 09:54

[Профиль]  [ЛС] 

yusuf.0088

Стаж: 4 года

Сообщений: 116

Симпатии: 69

808415 ... кстати а почему Рипчик Так Себе? Качество не очень? или не тянет на 10.5 гб с таким качеством!? по крайне мере хорошо что кроме HDRip есть и этот))
Настройки кодирования средние и битрейт 8300 кб/с для 1080p маловат.

Создавать темы 07-Апр-2014 17:16

[Профиль]  [ЛС] 

siyovush101

Стаж: 3 года 8 месяцев

Сообщений: 205

Симпатии: 71

808566
808415 ... кстати а почему Рипчик Так Себе? Качество не очень? или не тянет на 10.5 гб с таким качеством!? по крайне мере хорошо что кроме HDRip есть и этот))
Настройки кодирования средние и битрейт 8300 кб/с для 1080p маловат.
Вот Значит Как...Буду Знать!) Хотя В Принципе Нормально!)))Блюрей Диск Дорогое Удовольствие))

Создавать темы 07-Апр-2014 18:12

[Профиль]  [ЛС] 

BOBOYCHA007

Стаж: 1 год 6 месяцев

Сообщений: 1

mojete razdat

Создавать темы 14-Окт-2016 08:35

[Профиль]  [ЛС] 
Показать сообщения:    
Ответить на тему

Текущее время: 18-Окт 20:02

Часовой пояс: UTC + 5



Вы не можете начинать темы
Вы не можете отвечать на сообщения
Вы не можете редактировать свои сообщения
Вы не можете удалять свои сообщения
Вы не можете голосовать в опросах
Вы не можете прикреплять файлы к сообщениям
Вы не можете скачивать файлы