Командная строка Windows для "Чайников" [2012 г.]

Ответить на тему
 

kraft2307 ®

Стаж: 4 года 6 месяцев

Сообщений: 29

Командная строка Windows для "Чайников" (Обучающий видеокурс)
Год выпуска: 2012
Язык: русский

Описание: В представленном видеокурсе присутствуют уроки разной сложности по работе в командной строке, как для начинающих, так и для более продвинутых ползователей. Обучение начинается с базовых сведений о "cmd", ее настройках, имеющихся командах и далее по возрастающей сложности работы с командной строкой! Многие возможности и функции управления операционной системой недоступны из графического интерфейса и поэтому "cmd" является единственным средством доступа к этим инструментам.
Видео кодек: XviD
Видео: PCRec, ~874 Kbps 25fps, 1024x768
Аудио: MP3, 48000Hz stereo 256kbps

MI


Общее
Формат : AVI
Формат/Информация : Audio Video Interleave
Размер файла : 49,4 Мбайт
Общий поток : 1143 Кбит/сек
Программа кодирования : Lavf52.93.0
Видео
Идентификатор : 0
Формат : xvid
Идентификатор кодека : xvid
Битрейт : 874 Кбит/сек
Ширина : 1024 пикселя
Высота : 768 пикселей
Соотношение сторон : 4:3
Частота кадров : 25,000 кадров/сек
Бит/(Пиксели*Кадры) : 0.044
Размер потока : 37,8 Мбайт (76%)
Аудио
Идентификатор : 1
Формат : MPEG Audio
Версия формата : Version 1
Профиль формата : Layer 3
Режим : Joint stereo
Расширение режима : MS Stereo
Идентификатор кодека : 55
Идентификатор кодека/Подсказка : MP3
Вид битрейта : Постоянный
Битрейт : 256 Кбит/сек
Каналы : 2 канала
Частота : 48,0 КГц
Метод сжатия : С потерями
Размер потока : 11,1 Мбайт (22%)
Выравнивание : Соединение по промежуткам
Продолжительность промежутка : 24 мс. (0,60 видеокадр)
Время предзагрузки промежутка : 96 мс.
Библиотека кодирования : LAME3.98.4

Дополнительная информация

Содержание:
Урок 1. Базовые сведения о командной строке
Урок 2. Настройки командной строки
- часть 1. Настройки командной строки. Вкладка:''Общие''
- часть 2. Настройка командной строки. Вкладка: шрифт
- часть 3. Настройка командной строки. Вкладка: расположение
- часть 4. Настройка командной строки. Вкладка: цвета
- часть 5. Настройка командной строки: Сохранение настроек
Урок 3. Дополнительные настройки и возможности командной строки (3 части)
Урок 4. Работа с реестром (2 части)
Урок 5. Дефрагментация (2 части)
Урок 6. Работа с файлами и папками (4 части)
Урок 7. Шифрование данных через командную строку (Е.Серов)
Урок 8. Командная строка Windows [cmd] - (MrErcheph)
Урок 9. Видеоурок от М.Сакулевича:
- Настройка интерпретатора командной строки
- Работа с «Пакетными файлами» *.BAT или *.CMD.
- Программы, помогающие работать с файлами *.BAT или *.CMD.
- Выполние наборов команд.
- Настройка сети посредством BAT-файла.

Скриншоты



Мои скриншоты



Сайт-первоисточник

http://nnm-club.me/forum/viewtopic.php?t=704587

Создавать темы 21-Окт-2013 19:12

[Профиль]  [ЛС] 

kraft2307 ®

Стаж: 4 года 6 месяцев

Сообщений: 29

Встал на раздачу. Если скорость маленькая - потерпите. Завтра поставлю еще на втором компе.

Создавать темы 21-Окт-2013 19:33

[Профиль]  [ЛС] 

wled_2757

Стаж: 4 года 1 месяц

Сообщений: 6

Всем привет!!!! прикольный курс СОВЕТУЮ для информации просто посматреть

Создавать темы 21-Окт-2013 20:17

[Профиль]  [ЛС] 

Jokero

Стаж: 6 лет 7 месяцев

Сообщений: 176

Симпатии: 4

kraft2307, раздавай)) забираю его:)

Создавать темы 21-Окт-2013 20:40

[Профиль]  [ЛС] 

RichmanVIP

Стаж: 4 года 8 месяцев

Сообщений: 97

Симпатии: 4

а по PowerShell нету случаем курсов???

Создавать темы 21-Окт-2013 21:34

[Профиль]  [ЛС] 

kraft2307 ®

Стаж: 4 года 6 месяцев

Сообщений: 29

а по PowerShell нету случаем курсов???
Ловите... http://tas-ix.net/viewtopic.php?t=80392&spmode=full#seeders

Создавать темы 22-Окт-2013 16:04

[Профиль]  [ЛС] 

escapepro

Стаж: 5 лет 8 месяцев

Сообщений: 26

Симпатии: 1

А нет в Арсенале для профи?? С удоволствием скачал и помог з раздащей...

Создавать темы 29-Окт-2013 15:42

[Профиль]  [ЛС] 

Боксер

Стаж: 2 года 3 месяца

Сообщений: 54

Симпатии: 34

Спасиб

Создавать темы 17-Сен-2015 11:22

[Профиль]  [ЛС] 
Показать сообщения:    
Ответить на тему

Текущее время: 19-Ноя 10:09

Часовой пояс: UTC + 5



Вы не можете начинать темы
Вы не можете отвечать на сообщения
Вы не можете редактировать свои сообщения
Вы не можете удалять свои сообщения
Вы не можете голосовать в опросах
Вы не можете прикреплять файлы к сообщениям
Вы не можете скачивать файлы