Граница пустоты: Сад грешников (фильм четвертый) / Kara no Kyoukai: The Garden of Sinners [Movie] [без хардсаба] [RUS(int)+JAP+SUB] [2008, триллер, мистика, ужасы] [BD-Rip 720p]

Ответить на тему
 

[email protected] ®

Стаж: 4 года 2 месяца

Сообщений: 336

Симпатии: 143

-Граница пустоты: Сад грешников (фильм четвертый)
Kara no Kyoukai: The Garden of Sinners
- Страна: Япония
Год выпуска: 2008 г.
Жанр: триллер, мистика, ужасы
Продолжительность: 00:45:22
Режиссер: Такигути Тэйити
Автор оригинала: Насу Киноко
Студия:
-
Описание: После столкновения с серийным убийцей и его покровителями Сики Рёги на два года провалилась в кому. Блуждая в пустоте на границе жизни и небытия, она рассталась с одним даром и приняла другой – запретные Глаза Смерти, абсолютное оружие вселенной Type-Moon. Обретение внутренней цельности и поиск нового смысла жизни не дались бы Сики без поддержки старого друга Микии Кокуто и помощи новой подруги и работодателя – волшебницы Токо Аодзаки. Так встретились три странных личности, а в итоге родилось уникальное магическое детективное агентство «Храм пустоты»!
Теперь Токо, Сики и Микии точно не придется сидеть без дела – ведь враги рядом, и чужая многоходовая интрига только разворачивается. Но сколько веревочке ни виться, а долги все равно придется отдавать!

© Hollow, World Art
-
Информационные ссылки: AniDB | World Art | ANN
-
Качество: BDRip
Формат: MKV
Тип релиза: Без хардсаба
Озвучка: Moscow City Animegroup (MVO) | А. Килька (1 VO) | Eladiel & Ray & Trouble (3VO)-Видео: 8 bit, x264, 1280x720, ~4385 Kbp, 23.976 fps
Аудио JAP: AC3, 48000Hz, ~640 Kbps, 5.1 ch
Аудио RUS 1: AC3, 48000Hz, 192 Kbps, 2 ch - MCA (в составе контейнера)
Аудио RUS 2: AC3, 48000Hz, 384 Kbps, 5.1 ch - А. Килька (в составе контейнера)
Аудио RUS 3: AC3, 48000Hz, 320 Kbps, 2 ch - Anilibria (в составе контейнера)
Субтитры Bнешние ; Язык субтитров: русский.
-

MediaInfo

General
Unique ID : 177618460286836726152120784104489338330 (0x85A01235DA773908B77B237D7BB9C5DA)
Complete name : F:\Video\Аниме\Kara no Kyoukai [BD] [720p] [HDHWP]\Kara no Kyoukai 4 - Garan no Dou [BDrip 1280x720]\Kara no Kyoukai 4 - Garan no Dou [BDrip 1280x720].mkv
Format : Matroska
Format version : Version 2
File size : 1.88 GiB
Duration : 45mn 22s
Overall bit rate : 5 923 Kbps
Encoded date : UTC 2013-03-15 19:01:42
Writing application : mkvmerge v2.9.8 ('C'est le bon') built on Aug 13 2009 12:49:06
Writing library : libebml v0.7.7 + libmatroska v0.8.1
Video
ID : 1
Format : AVC
Format/Info : Advanced Video Codec
Format profile : [email protected]
Format settings, CABAC : Yes
Format settings, ReFrames : 8 frames
Codec ID : V_MPEG4/ISO/AVC
Duration : 45mn 22s
Width : 1 280 pixels
Height : 720 pixels
Display aspect ratio : 16:9
Frame rate mode : Constant
Frame rate : 23.976 fps
Color space : YUV
Chroma subsampling : 4:2:0
Bit depth : 8 bits
Scan type : Progressive
Writing library : x264 core 112 r1867 22bfd31
Encoding settings : cabac=1 / ref=8 / deblock=1:0:0 / analyse=0x3:0x133 / me=umh / subme=9 / psy=1 / psy_rd=0.70:0.00 / mixed_ref=1 / me_range=32 / chroma_me=1 / trellis=2 / 8x8dct=1 / cqm=0 / deadzone=21,11 / fast_pskip=0 / chroma_qp_offset=-3 / threads=12 / sliced_threads=0 / nr=0 / decimate=0 / interlaced=0 / constrained_intra=0 / bframes=10 / b_pyramid=0 / b_adapt=2 / b_bias=0 / direct=1 / weightb=1 / open_gop=0 / weightp=2 / keyint=250 / keyint_min=23 / scenecut=40 / intra_refresh=0 / rc=crf / mbtree=0 / crf=15.8 / qcomp=0.75 / qpmin=8 / qpmax=26 / qpstep=4 / ip_ratio=1.40 / pb_ratio=1.30 / aq=1:1.00
Language : English
Default : No
Forced : No
Audio #1
ID : 2
Format : AC-3
Format/Info : Audio Coding 3
Mode extension : CM (complete main)
Format settings, Endianness : Big
Codec ID : A_AC3
Duration : 45mn 22s
Bit rate mode : Constant
Bit rate : 640 Kbps
Channel count : 6 channels
Channel positions : Front: L C R, Side: L R, LFE
Sampling rate : 48.0 KHz
Bit depth : 16 bits
Compression mode : Lossy
Stream size : 208 MiB (11%)
Language : Japanese
Default : No
Forced : No
Audio #2
ID : 3
Format : AC-3
Format/Info : Audio Coding 3
Mode extension : CM (complete main)
Format settings, Endianness : Big
Codec ID : A_AC3
Duration : 45mn 22s
Bit rate mode : Constant
Bit rate : 320 Kbps
Channel count : 2 channels
Channel positions : Front: L R
Sampling rate : 48.0 KHz
Bit depth : 16 bits
Compression mode : Lossy
Stream size : 104 MiB (5%)
Title : Anilibria
Language : Russian
Default : No
Forced : No
Audio #3
ID : 4
Format : AAC
Format/Info : Advanced Audio Codec
Format profile : LC
Codec ID : A_AAC
Duration : 45mn 22s
Channel count : 2 channels
Channel positions : Front: L R
Sampling rate : 48.0 KHz
Compression mode : Lossy
Title : MCA
Language : Russian
Default : Yes
Forced : No
Audio #4
ID : 5
Format : AC-3
Format/Info : Audio Coding 3
Mode extension : CM (complete main)
Format settings, Endianness : Big
Codec ID : A_AC3
Duration : 45mn 22s
Bit rate mode : Constant
Bit rate : 384 Kbps
Channel count : 6 channels
Channel positions : Front: L C R, Side: L R, LFE
Sampling rate : 48.0 KHz
Bit depth : 16 bits
Compression mode : Lossy
Stream size : 125 MiB (6%)
Title : Kilka
Language : Russian
Default : No
Forced : No

Скриншоты




Источник

rutracker.org


Последний раз редактировалось: [email protected] (2015-04-24 21:27), всего редактировалось 2 раз(а)

Создавать темы 23-Окт-2013 00:11

[Профиль]  [ЛС] 

[email protected] ®

Стаж: 4 года 2 месяца

Сообщений: 336

Симпатии: 143

Раздача завтра с утра

Создавать темы 23-Окт-2013 00:13

[Профиль]  [ЛС] 

FRIEND

Стаж: 6 лет 7 месяцев

Сообщений: 120

Симпатии: 7

Когда пятая?

Создавать темы 23-Окт-2013 20:06

[Профиль]  [ЛС] 

Rambotnik

Стаж: 6 лет 4 месяца

Сообщений: 1274

Симпатии: 81

Советую не раньше того времени, когда здесь и в предыдущих раздачах не появится по 2-3 скачавших.

Создавать темы 23-Окт-2013 20:30

[Профиль]  [ЛС] 
Показать сообщения:    
Ответить на тему

Текущее время: 23-Сен 03:38

Часовой пояс: UTC + 5



Вы не можете начинать темы
Вы не можете отвечать на сообщения
Вы не можете редактировать свои сообщения
Вы не можете удалять свои сообщения
Вы не можете голосовать в опросах
Вы не можете прикреплять файлы к сообщениям
Вы не можете скачивать файлы