Вдоль Великой китайской стены / Trekking the Great Wall [2011 г., Документальный, научно-познавательный, SATRip]

Ответить на тему
 

HITECH ®

Стаж: 4 года 6 месяцев

Сообщений: 25

Симпатии: 3

Вдоль Великой китайской стены / Trekking the Great Wall- Год выпуска: 2011
Страна: США, National Geographic Channel
Жанр: Документальный, научно-познавательный
Продолжительность: 00:44:59
Перевод: Профессиональный (одноголосый)
Русские субтитры: нет-Описание: Это одно из величайших архитектурных чудес света - Великая китайская стена. Говорят, её можно увидеть даже из космоса. Этот шедевр архитектуры был свидетелем сотен сражений.-Качество: SATRip
Формат: AVI
Видео кодек: DivX
Аудио кодек: MP3
Видео: DivX MPEG-4, 704x400 (16:9), 1500 Kbps, 25 fps
Аудио: MP3, 128 kbps, 48 kHz, 2 ch- -

MediaInfo

General
Complete name : D:\Фильмы\N.G.Vdol.kitaiskoi.steni.2011.DivX.SATRip.avi
Format : AVI
Format/Info : Audio Video Interleave
File size : 529 MiB
Duration : 44mn 59s
Overall bit rate : 1 645 Kbps
Video
ID : 0
Format : MPEG-4 Visual
Format profile : Simple@L3
Format settings, BVOP : No
Format settings, QPel : No
Format settings, GMC : No warppoints
Format settings, Matrix : Default (H.263)
Codec ID : DX50
Codec ID/Hint : DivX 5
Duration : 44mn 59s
Bit rate : 1 500 Kbps
Width : 704 pixels
Height : 400 pixels
Display aspect ratio : 16:9
Frame rate : 25.000 fps
Color space : YUV
Chroma subsampling : 4:2:0
Bit depth : 8 bits
Scan type : Progressive
Compression mode : Lossy
Bits/(Pixel*Frame) : 0.213
Stream size : 483 MiB (91%)
Writing library : XviD 1.2.1 (UTC 2008-12-04)
Audio
ID : 1
Format : MPEG Audio
Format version : Version 1
Format profile : Layer 3
Mode : Joint stereo
Mode extension : MS Stereo
Codec ID : 55
Codec ID/Hint : MP3
Duration : 44mn 59s
Bit rate mode : Constant
Bit rate : 128 Kbps
Channel count : 2 channels
Sampling rate : 48.0 KHz
Compression mode : Lossy
Stream size : 41.2 MiB (8%)
Alignment : Aligned on interleaves
Interleave, duration : 24 ms (0.60 video frame)
Writing library : LAME3.98.2

Скриншоты

Создавать темы 23-Окт-2013 11:54

[Профиль]  [ЛС] 

Jokero

Стаж: 6 лет 6 месяцев

Сообщений: 176

Симпатии: 4

Сидеры вы где?

Создавать темы 30-Окт-2013 20:37

[Профиль]  [ЛС] 
Показать сообщения:    
Ответить на тему

Текущее время: 19-Окт 17:52

Часовой пояс: UTC + 5



Вы не можете начинать темы
Вы не можете отвечать на сообщения
Вы не можете редактировать свои сообщения
Вы не можете удалять свои сообщения
Вы не можете голосовать в опросах
Вы не можете прикреплять файлы к сообщениям
Вы не можете скачивать файлы