Международный аэропорт Дубай / Ultimate Airport Dubai [2013 г., Документальный, SATRip]

Страницы :  1, 2  След.

Ответить на тему
 

HITECH ®

Стаж: 4 года 6 месяцев

Сообщений: 25

Симпатии: 3

Международный аэропорт Дубай / Ultimate Airport Dubai- Год выпуска: 2013
Страна: США, National Geographic
Жанр: Документальный
Продолжительность: 00:44:59
Перевод: Профессиональный (одноголосый) студия АРК ТВ-Режиссер: Давид Ковард / David Coward-Описание: Менее 55 лет назад на месте Международного аэропорта Дубая была огромная пустыня. Но сегодня это мекка международных воздушных перевозок. Это третий по загруженности аэропорт в мире для пассажиров международных рейсов, он принимает 344 000 рейсов, 57 млн. пассажиров и 2000 тысяч тонн грузов в год. Канал National Geographic покажет закулисную жизнь трех международных терминалов аэропорта, в том числе терминала 3 - самого большого здания на земле, его размер составляет 359 футбольных полей! Беспрецедентный доступ ко всем аспектам этого мега-центра – этот сериал показывает некоторых из 60 000 сотрудников, работающих в аэропорту. От управления воздушным движением, таможенных служб, которые перехватывают подозреваемых в контрабанде наркотиков до строительства нового терминала стоимостью 3,2 млрд. долларов, National Geographic Channel предоставляет 360 -градусный обзор этого сверхсовременного аэропорта.-Качество: SATRip
формат: AVI
Видео: XviD. 720x400 (16:9) 25.00fps ~ 1580 Кбит/сек
Аудио: Русский, AC3, 48 kHz, 2 ch, 192 Кбит/с
Аудио: Английский AC3, 48 kHz, 2 ch, 192 Кбит/с- -

MediaInfo

General
Complete name : D:\Фильмы\N.G Международный аэропорт Дубай (Ultimate Airport Dubai) 2013 SATRip\Эпизод 1.avi
Format : AVI
Format/Info : Audio Video Interleave
File size : 642 MiB
Duration : 44mn 59s
Overall bit rate : 1 995 Kbps
Writing application : VirtualDubModRus 1.5.10.2 (build 2542/release)
Writing library : VirtualDubMod build 2542/release
Video
ID : 0
Format : MPEG-4 Visual
Format profile : Advanced [email protected]
Format settings, BVOP : 2
Format settings, QPel : No
Format settings, GMC : No warppoints
Format settings, Matrix : Default (H.263)
Muxing mode : Packed bitstream
Codec ID : XVID
Codec ID/Hint : XviD
Duration : 44mn 59s
Bit rate : 1 597 Kbps
Width : 720 pixels
Height : 400 pixels
Display aspect ratio : 16:9
Frame rate : 25.000 fps
Color space : YUV
Chroma subsampling : 4:2:0
Bit depth : 8 bits
Scan type : Progressive
Compression mode : Lossy
Bits/(Pixel*Frame) : 0.222
Stream size : 514 MiB (80%)
Writing library : XviD 1.2.1 (UTC 2008-12-04)
Audio #1
ID : 1
Format : AC-3
Format/Info : Audio Coding 3
Mode extension : CM (complete main)
Format settings, Endianness : Big
Codec ID : 2000
Duration : 44mn 59s
Bit rate mode : Constant
Bit rate : 192 Kbps
Channel count : 2 channels
Channel positions : Front: L R
Sampling rate : 48.0 KHz
Bit depth : 16 bits
Compression mode : Lossy
Stream size : 61.8 MiB (10%)
Alignment : Split accross interleaves
Interleave, duration : 40 ms (1.00 video frame)
Interleave, preload duration : 500 ms
Audio #2
ID : 2
Format : AC-3
Format/Info : Audio Coding 3
Mode extension : CM (complete main)
Format settings, Endianness : Big
Codec ID : 2000
Duration : 44mn 59s
Bit rate mode : Constant
Bit rate : 192 Kbps
Channel count : 2 channels
Channel positions : Front: L R
Sampling rate : 48.0 KHz
Bit depth : 16 bits
Compression mode : Lossy
Stream size : 61.8 MiB (10%)
Alignment : Split accross interleaves
Interleave, duration : 40 ms (1.00 video frame)
Interleave, preload duration : 500 ms

Скриншоты

Эпизод 1

Эпизод 2

Эпизод 3

Добавлена 7 серия


Последний раз редактировалось: HITECH (2013-11-18 18:31), всего редактировалось 13 раз(а)

Создавать темы 23-Окт-2013 12:07

[Профиль]  [ЛС] 

Emigrate

Стаж: 5 лет 9 месяцев

Сообщений: 110

Симпатии: 1

Офигительная вещь

Создавать темы 23-Окт-2013 15:45

[Профиль]  [ЛС] 

slaiderUZ

Стаж: 5 лет 9 месяцев

Сообщений: 172

Симпатии: 6

спасибо ждем обновлений!

_________________
Подпись отключена за нарушение правил форума

Создавать темы 23-Окт-2013 16:12

[Профиль]  [ЛС] 

Emigrate

Стаж: 5 лет 9 месяцев

Сообщений: 110

Симпатии: 1

серии будут добавляться?

Создавать темы 23-Окт-2013 18:04

[Профиль]  [ЛС] 

HITECH ®

Стаж: 4 года 6 месяцев

Сообщений: 25

Симпатии: 3

да буду добавлять новые выпуски

Создавать темы 23-Окт-2013 20:03

[Профиль]  [ЛС] 

Jokero

Стаж: 6 лет 6 месяцев

Сообщений: 176

Симпатии: 4

а сколько серий в общем? и когда ожидается последняя серия?

Создавать темы 23-Окт-2013 21:38

[Профиль]  [ЛС] 

doston_x

Стаж: 4 года 5 месяцев

Сообщений: 22

Симпатии: 1

а сколько серий в общем? и когда ожидается последняя серия?
эта программа даётся каждую неделю на Нешинал Джеографик Ченнл, и конца еще нету

Создавать темы 23-Окт-2013 21:43

[Профиль]  [ЛС] 

Jokero

Стаж: 6 лет 6 месяцев

Сообщений: 176

Симпатии: 4

ну тогда будем ждать все выпуски

Создавать темы 24-Окт-2013 00:08

[Профиль]  [ЛС] 

HITECH ®

Стаж: 4 года 6 месяцев

Сообщений: 25

Симпатии: 3

Беар Гриллс: по стопам выживших зарелизил новую передачу в HD 720p забирайте)

Создавать темы 24-Окт-2013 18:24

[Профиль]  [ЛС] 

slaiderUZ

Стаж: 5 лет 9 месяцев

Сообщений: 172

Симпатии: 6

вау новые эпизоды. спасибо братан

_________________
Подпись отключена за нарушение правил форума

Создавать темы 25-Окт-2013 13:00

[Профиль]  [ЛС] 

HITECH ®

Стаж: 4 года 6 месяцев

Сообщений: 25

Симпатии: 3

интересная передача сам смотрю вот и выкладываю

Создавать темы 25-Окт-2013 13:14

[Профиль]  [ЛС] 

tower_96

Стаж: 5 лет 6 месяцев

Сообщений: 3

скорость дайте

Создавать темы 05-Ноя-2013 02:32

[Профиль]  [ЛС] 

tower_96

Стаж: 5 лет 6 месяцев

Сообщений: 3

успел только одну серию скачать

Создавать темы 05-Ноя-2013 02:33

[Профиль]  [ЛС] 

slaiderUZ

Стаж: 5 лет 9 месяцев

Сообщений: 172

Симпатии: 6

другие серии будет или их всего 4?

_________________
Подпись отключена за нарушение правил форума

Создавать темы 12-Ноя-2013 17:28

[Профиль]  [ЛС] 

HITECH ®

Стаж: 4 года 6 месяцев

Сообщений: 25

Симпатии: 3

у меня 7 серии есть сейчас обновлю торрент файл

Создавать темы 18-Ноя-2013 18:19

[Профиль]  [ЛС] 
Показать сообщения:    
Ответить на тему

Текущее время: 17-Окт 11:16

Часовой пояс: UTC + 5



Вы не можете начинать темы
Вы не можете отвечать на сообщения
Вы не можете редактировать свои сообщения
Вы не можете удалять свои сообщения
Вы не можете голосовать в опросах
Вы не можете прикреплять файлы к сообщениям
Вы не можете скачивать файлы