Привычка расставаться (Екатерина Телегина) [2013 г., комедия, мелодрама, WEB-DLRip][Лицензия]

Ответить на тему
 

Suxrob89 ®

Стаж: 7 лет 2 месяца

Сообщений: 933

Симпатии: 564

-Привычка расставаться-«Как найти свою любовь?»- Год выпуска фильма: 2013
Страна: Россия
Жанр: комедия, мелодрама
Продолжительность: 01:19:26
Перевод: Оригинальное [Лицензия]-Режиссер: Екатерина Телегина-В ролях: Данила Козловский,Артур Смольянинов,Алёна Константинова, Полина Филоненко, Пётр Фёдоров, Алексей Филимонов, Александр Петров, Елизавета Боярская-Описание: История о девушке, которая не может устроить свою личную жизнь. В поисках ответа, почему все ее отношения не сложились, она решает встретиться со всеми своими бывшими и спросить у них, что они думают по этому поводу. Найдет ли она ответ на свой вопрос? Нет. Найдет ли она свою любовь? Конечно, да!- -Качество: WEB-DLRip
Формат видео: AVI
Видео кодек: XviD
Аудио кодек: AC3
Видео: XviD, 2006 Кбит/с, 720x384, 25.000 fps
Аудио: AC3, 6 ch, 448 Кбит/с, 48.0 KHz

Media info

F:\Privycka.rasstavatsja.2013.O.WEBDLRip.1400MB.INTERCINEMA.avi
General
Complete name : F:\Privycka.rasstavatsja.2013.O.WEBDLRip.1400MB.INTERCINEMA.avi
Format : AVI
Format/Info : Audio Video Interleave
File size : 1.37 GiB
Duration : 1h 19mn
Overall bit rate : 2 464 Kbps
Movie name : Privycka.rasstavatsja.2013.O.WEBDLRip.1400MB.INTERCINEMA
Director : INTERCINEMA
Genre : Comedy/Romance
Writing application : VirtualDubMod 1.5.10.2 (build 2540/release)
Original source form/Name : Movie
Copyright : http://intercinema.net
Video #0
ID : 0
Format : MPEG-4 Visual
Format profile : Advanced [email protected]
Format settings, BVOP : 2
Format settings, QPel : No
Format settings, GMC : No warppoints
Format settings, Matrix : Custom
Codec ID : XVID
Codec ID/Hint : XviD
Duration : 1h 19mn
Bit rate : 2 006 Kbps
Width : 720 pixels
Height : 384 pixels
Display aspect ratio : 1.85:1
Frame rate : 25.000 fps
Color space : YUV
Chroma subsampling : 4:2:0
Bit depth : 8 bits
Scan type : Progressive
Compression mode : Lossy
Bits/(Pixel*Frame) : 0.290
Stream size : 1.11 GiB (81%)
Writing library : XviD 1.2.1 (UTC 2008-12-04)
Audio #1
ID : 1
Format : AC-3
Format/Info : Audio Coding 3
Mode extension : CM (complete main)
Format settings, Endianness : Big
Codec ID : 2000
Duration : 1h 19mn
Bit rate mode : Constant
Bit rate : 448 Kbps
Channel(s) : 6 channels
Channel positions : Front: L C R, Side: L R, LFE
Sampling rate : 48.0 KHz
Bit depth : 16 bits
Compression mode : Lossy
Stream size : 255 MiB (18%)
Alignment : Split accross interleaves
Interleave, duration : 40 ms (1.00 video frame)
Interleave, preload duration : 500 ms

Скриншоты






Последний раз редактировалось: Suxrob89 (2013-10-25 08:31), всего редактировалось 1 раз

Создавать темы 25-Окт-2013 08:10

[Профиль]  [ЛС] 

МаликаМ

Стаж: 4 года 11 месяцев

Сообщений: 13

Симпатии: 1

дайте раздачу)))

Создавать темы 10-Ноя-2013 02:52

[Профиль]  [ЛС] 

CHEZARE

Стаж: 5 лет 4 месяца

Сообщений: 9

Симпатии: 1

песня там хорошая есть когда она с музыкантом отжигала
the parlotones-push me to the floor

Создавать темы 23-Ноя-2013 22:49

[Профиль]  [ЛС] 

ironman9966

Стаж: 2 года 7 месяцев

Сообщений: 10

Симпатии: 1

Дай раздачу

Создавать темы 03-Май-2016 18:38

[Профиль]  [ЛС] 
Показать сообщения:    
Ответить на тему

Текущее время: 23-Окт 01:57

Часовой пояс: UTC + 5



Вы не можете начинать темы
Вы не можете отвечать на сообщения
Вы не можете редактировать свои сообщения
Вы не можете удалять свои сообщения
Вы не можете голосовать в опросах
Вы не можете прикреплять файлы к сообщениям
Вы не можете скачивать файлы