Ловля карпа фидером на платнике. [2013, Рыбалка, WEB-DLRip, RUS] (Видеоурок)

Ответить на тему
 

rob ®

Стаж: 5 лет 1 месяц

Сообщений: 34

Симпатии: 5

Ловля карпа фидером на платнике
Страна: Россия
Тематика: Рыбалка
Тип раздаваемого материала: Видеоурок
Продолжительность: 01:25:21
Год выпуска: 2013
Язык: Русский
Перевод: Не требуется
Режиссер / Телекомпания: Наталья Салапина
Описание: Фильм является базовым руководством к действию при ловле карпа фидером на платнике. Показана как самая простая ловля, без каких-либо премудростей, так и некоторые моменты, пришедшие из карповой ловли, которые помогут улучшить результат.
Качество: WEB-DLRip
Формат: AVI
Видео кодек: XviD
Аудио кодек: MP3
Видео: 720 x 408 (1.765) at 29.970 fps: MPEG-4 Visual at 1997 Кбит/сек
Аудио: 2 канала, 44,1 КГц: MPEG Audio at 128 Кбит/сек-За видео спасибо Дмитрию Салапину.-

Скриншоты




MediaInfo

Общее
Формат : AVI
Формат/Информация : Audio Video Interleave
Размер файла : 1,27 Гбайт
Продолжительность : 1 ч. 25 м.
Общий поток : 2137 Кбит/сек
Библиотека кодирования : VirtualDub build 32842/release
Видео
Идентификатор : 0
Формат : MPEG-4 Visual
Профиль формата : Advanced [email protected]
Параметр BVOP формата : 2
Параметр QPel формата : Нет
Параметр GMC формата : Без точки перехода
Параметр матрицы формата : Default (H.263)
Режим смешивания : Сжатый битовый поток
Идентификатор кодека : XVID
Идентификатор кодека/Подсказка : XviD
Продолжительность : 1 ч. 25 м.
Битрейт : 1997 Кбит/сек
Ширина : 720 пикселей
Высота : 408 пикселей
Соотношение сторон : 16:9
Частота кадров : 29,970 кадров/сек
Цветовое пространство : YUV
Субдискретизация насыщенности : 4:2:0
Битовая глубина : 8 бит
Тип развёртки : Прогрессивная
Метод сжатия : С потерями
Бит/(Пиксели*Кадры) : 0.227
Размер потока : 1,19 Гбайт (93%)
Библиотека кодирования : XviD 73
Аудио
Идентификатор : 1
Формат : MPEG Audio
Версия формата : Version 1
Профиль формата : Layer 3
Режим : Joint stereo
Расширение режима : MS Stereo
Идентификатор кодека : 55
Идентификатор кодека/Подсказка : MP3
Продолжительность : 1 ч. 25 м.
Вид битрейта : Постоянный
Битрейт : 128 Кбит/сек
Каналы : 2 канала
Частота : 44,1 КГц
Метод сжатия : С потерями
Размер потока : 78,0 Мбайт (6%)
Выравнивание : Разделение по промежуткам
Продолжительность промежутка : 33 мс. (1,00 видеокадр)
Время предзагрузки промежутка : 501 мс.

Создавать темы 25-Окт-2013 10:38

[Профиль]  [ЛС] 
Показать сообщения:    
Ответить на тему

Текущее время: 18-Окт 10:52

Часовой пояс: UTC + 5



Вы не можете начинать темы
Вы не можете отвечать на сообщения
Вы не можете редактировать свои сообщения
Вы не можете удалять свои сообщения
Вы не можете голосовать в опросах
Вы не можете прикреплять файлы к сообщениям
Вы не можете скачивать файлы