Учитель английского / The English Teacher (Крейг Зиск) [2012 г., драма, комедия, семейный, HDRip [Лицензия]

Ответить на тему
 

Nadejda89 ®

Стаж: 4 года 8 месяцев

Сообщений: 13

Учитель английского / The English Teacher

Год выпуска: 2012
Страна: США
Жанр: драма, комедия, семейный
Продолжительность: 01:31:46
Перевод: Профессиональный (многоголосый) [Лицензия]
Режиссер: Крейг Зиск
В ролях: Джулианна Мур, Майкл Ангарано, Грег Киннер, Лили Коллинз, Нейтан Лейн, Никки Блонски, Фиона Шоу, Джессика Хехт, Чарли Сэкстон, Эрин Вильхельми
Описание: Линда Синклер — учительница английского языка в средней школе маленького городка Кингстон, штат Пенсильвания. Линда вкладывает душу в свой предмет и ученикам нравятся её уроки, но она одинока, жизнь её размеренна и лишена ярких событий. Когда её бывший ученик Джейсон Шервуд возвращается домой из Нью-Йорка, не добившись успеха на поприще драматурга, Линда убеждает его поставить пьесу в родной школе. Но строгий отец Джейсона, доктор Том Шервуд, настаивает, чтобы сын поступил в юридическую школу...

Медиа-инфо

Format : AVI
Format/Info : Audio Video Interleave
File size : 1.37 GiB
Duration : 1h 31mn
Overall bit rate : 2 132 Kbps
Writing application : VirtualDubMod 1.5.10.3 | www.virtualdub-fr.org || (build 2550/release)
Writing library : VirtualDubMod build 2550/release
Video
ID : 0
Format : MPEG-4 Visual
Format profile : Advanced [email protected]
Format settings, BVOP : 1
Format settings, QPel : No
Format settings, GMC : No warppoints
Format settings, Matrix : Custom
Codec ID : XVID
Codec ID/Hint : XviD
Duration : 1h 31mn
Bit rate : 1 675 Kbps
Width : 720 pixels
Height : 304 pixels
Display aspect ratio : 2.35:1
Frame rate : 23.976 fps
Color space : YUV
Chroma subsampling : 4:2:0
Bit depth : 8 bits
Scan type : Progressive
Compression mode : Lossy
Bits/(Pixel*Frame) : 0.319
Stream size : 1.07 GiB (79%)
Writing library : XviD 1.2.1 (UTC 2008-12-04)
Audio
ID : 1
Format : AC-3
Format/Info : Audio Coding 3
Mode extension : CM (complete main)
Format settings, Endianness : Big
Codec ID : 2000
Duration : 1h 31mn
Bit rate mode : Constant
Bit rate : 448 Kbps
Channel(s) : 6 channels
Channel positions : Front: L C R, Side: L R, LFE
Sampling rate : 48.0 KHz
Bit depth : 16 bits
Compression mode : Lossy
Stream size : 294 MiB (21%)
Alignment : Split accross interleaves
Interleave, duration : 42 ms (1.00 video frame)
Interleave, preload duration : 500 ms
Качество: HDRip
Формат: AVI
Видео кодек: XviD
Аудио кодек: AC3
Видео: XviD, 1 675 Kbps, 720х304, 23.976 fps
Аудио: AC-3, 448 Kbps, 6 channels, 48.0 KHz

Скриншоты



Последний раз редактировалось: Nadejda89 (2013-10-25 22:19), всего редактировалось 1 раз

Создавать темы 25-Окт-2013 22:03

[Профиль]  [ЛС] 

star_from_the_sky

Стаж: 4 года 6 месяцев

Сообщений: 22

Симпатии: 3

есть более хорошем качестве7

Создавать темы 26-Окт-2013 13:17

[Профиль]  [ЛС] 
Показать сообщения:    
Ответить на тему

Текущее время: 15-Дек 05:47

Часовой пояс: UTC + 5



Вы не можете начинать темы
Вы не можете отвечать на сообщения
Вы не можете редактировать свои сообщения
Вы не можете удалять свои сообщения
Вы не можете голосовать в опросах
Вы не можете прикреплять файлы к сообщениям
Вы не можете скачивать файлы