Непристойное предложение / Indecent Proposal (Адриан Лайн) [1993 г., Драма, Мелодрама, DVDRip]

Страницы :  1, 2  След.

Ответить на тему
 

rikimaruxxx ®

Стаж: 5 лет 2 месяца

Сообщений: 254

Симпатии: 42

Непристойное предложение / Indecent Proposal
-Год выпуска: 1993
Страна: США
Жанр: Драма, Мелодрама
Продолжительность: 01:56:58
Перевод: Профессиональный (полное дублирование)-Режиссер: Адриан Лайн-В ролях: Билли Боб Торнтон, Билли Коннолли, Вуди Харрельсон, Деми Мур, Джоэль Брукс, Оливер Платт, Пьер Эпштейн, Рип Тейлор, Роберт Редфорд, Сеймур Кэссел-Описание: Как вы отнесетесь к непристойному предложению? Вам предлагается миллион долларов всего за одну ночь с вашей женой. Никаких лишних вопросов. Никаких обид. Никакого обмана. Все ваши финансовые вопросы будут решены в одно мгновение. Все ваши неосуществимые мечты станут реальностью. Как вы сами понимаете, речь идет об очень больших деньгах. Одна ночь с вашей женой. Согласны?
Именно с такой дилеммой столкнулся архитектор Дэйвид Мерфи, после того, как миллиардер-финансист, очарованный красотой его супруги Дайэны, сделал предложение, от которого почти невозможно отказаться. Одна ночь с Дайэной — миллион долларов! Смогут ли молодые люди пойти на эту сделку? Готовы ли они заплатить столь большую цену за столь большие деньги?-Качество: DVDRip
Формат: AVI
Видео кодек: XVID
Аудио кодек: AC3
Видео: 720x400p MPEG-4 Visual, 1499 Kbps
Аудио #1: AC-3, 448 Kbps, 6 channels, 48.0 KHz(Профессиональный Двухголосный Закадровый)
Аудио #2: AC-3, 384 Kbps, 6 channels, 48.0 KHz(Профессиональный Многоголосный Закадровый)
Аудио #3: AC-3, 192 Kbps, 6 channels, 48.0 KHz(Авторский Одноголосный Закадровый)
Аудио #4: AC-3, 128 Kbps, 2 channels, 32.0 KHz(Авторский Одноголосный Закадровый гоблин)

MediaInfo

General
Complete name                            : C:\Kачен\nepristoinoe_predlozhenie.avi
Format                                   : AVI
Format/Info                              : Audio Video Interleave
Format profile                           : OpenDML
File size                                : 2.19 GiB
Duration                                 : 1h 56mn
Overall bit rate                         : 2 680 Kbps
Writing application                      : VirtualDubMod 1.5.10.1 (build 2366/release)
Writing library                          : VirtualDubMod build 2366/release
Video
ID                                       : 0
Format                                   : MPEG-4 Visual
Format profile                           : Advanced [email protected]
Format settings, BVOP                    : 2
Format settings, QPel                    : No
Format settings, GMC                     : No warppoints
Format settings, Matrix                  : Default (MPEG)
Codec ID                                 : XVID
Codec ID/Hint                            : XviD
Duration                                 : 1h 56mn
Bit rate                                 : 1 499 Kbps
Width                                    : 720 pixels
Height                                   : 400 pixels
Display aspect ratio                     : 16:9
Frame rate                               : 23.976 fps
Color space                              : YUV
Chroma subsampling                       : 4:2:0
Bit depth                                : 8 bits
Scan type                                : Progressive
Compression mode                         : Lossy
Bits/(Pixel*Frame)                       : 0.217
Stream size                              : 1.22 GiB (56%)
Writing library                          : XviD 1.2.1 (UTC 2008-12-04)
Audio #1
ID                                       : 1
Format                                   : AC-3
Format/Info                              : Audio Coding 3
Mode extension                           : CM (complete main)
Format settings, Endianness              : Big
Codec ID                                 : 2000
Duration                                 : 1h 56mn
Bit rate mode                            : Constant
Bit rate                                 : 448 Kbps
Channel(s)                               : 6 channels
Channel positions                        : Front: L C R, Side: L R, LFE
Sampling rate                            : 48.0 KHz
Bit depth                                : 16 bits
Compression mode                         : Lossy
Stream size                              : 375 MiB (17%)
Alignment                                : Split accross interleaves
Interleave, duration                     : 42 ms (1.00 video frame)
Interleave, preload duration             : 500 ms
Audio #2
ID                                       : 2
Format                                   : AC-3
Format/Info                              : Audio Coding 3
Mode extension                           : CM (complete main)
Format settings, Endianness              : Big
Codec ID                                 : 2000
Duration                                 : 1h 56mn
Bit rate mode                            : Constant
Bit rate                                 : 384 Kbps
Channel(s)                               : 6 channels
Channel positions                        : Front: L C R, Side: L R, LFE
Sampling rate                            : 48.0 KHz
Bit depth                                : 16 bits
Compression mode                         : Lossy
Stream size                              : 321 MiB (14%)
Alignment                                : Split accross interleaves
Interleave, duration                     : 42 ms (1.00 video frame)
Interleave, preload duration             : 500 ms
Audio #3
ID                                       : 3
Format                                   : AC-3
Format/Info                              : Audio Coding 3
Mode extension                           : CM (complete main)
Format settings, Endianness              : Big
Codec ID                                 : 2000
Duration                                 : 1h 56mn
Bit rate mode                            : Constant
Bit rate                                 : 192 Kbps
Channel(s)                               : 6 channels
Channel positions                        : Front: L C R, Side: L R, LFE
Sampling rate                            : 48.0 KHz
Bit depth                                : 16 bits
Compression mode                         : Lossy
Stream size                              : 161 MiB (7%)
Alignment                                : Split accross interleaves
Interleave, duration                     : 42 ms (1.00 video frame)
Interleave, preload duration             : 500 ms
Audio #4
ID                                       : 4
Format                                   : AC-3
Format/Info                              : Audio Coding 3
Mode extension                           : CM (complete main)
Format settings, Endianness              : Big
Codec ID                                 : 2000
Duration                                 : 1h 56mn
Bit rate mode                            : Constant
Bit rate                                 : 128 Kbps
Channel(s)                               : 2 channels
Channel positions                        : Front: L R
Sampling rate                            : 32.0 KHz
Bit depth                                : 16 bits
Compression mode                         : Lossy
Stream size                              : 107 MiB (5%)
Alignment                                : Split accross interleaves
Interleave, duration                     : 42 ms (1.00 video frame)
Interleave, preload duration             : 500 ms

Скриншоты





Последний раз редактировалось: rikimaruxxx (2013-10-26 00:57), всего редактировалось 1 раз

Создавать темы 26-Окт-2013 00:29

[Профиль]  [ЛС] 

farid0888

Стаж: 5 лет 4 месяца

Сообщений: 232

Симпатии: 49

Спасибо друг тебе огромное !!!!!

Создавать темы 26-Окт-2013 00:51

[Профиль]  [ЛС] 

farid0888

Стаж: 5 лет 4 месяца

Сообщений: 232

Симпатии: 49

Ребята качайте фильм прост супер!

Создавать темы 26-Окт-2013 00:59

[Профиль]  [ЛС] 

Emigrate

Стаж: 5 лет 8 месяцев

Сообщений: 110

Симпатии: 1

Забираю

Создавать темы 26-Окт-2013 11:02

[Профиль]  [ЛС] 

rikimaruxxx ®

Стаж: 5 лет 2 месяца

Сообщений: 254

Симпатии: 42

перевод отличный есть выбор 4 дорожек

Создавать темы 26-Окт-2013 15:48

[Профиль]  [ЛС] 

farid0888

Стаж: 5 лет 4 месяца

Сообщений: 232

Симпатии: 49

RIKIMARUXXX, Привет! у меня настроен тередо но почемута не качает?

Создавать темы 26-Окт-2013 21:20

[Профиль]  [ЛС] 

rikimaruxxx ®

Стаж: 5 лет 2 месяца

Сообщений: 254

Симпатии: 42

farid0888, потомучто я в этой раздаче единственный сид, Число слотов отдачи для одного торрента составляет максимум 5 человек и все эти 5 слота уже заняты

Создавать темы 26-Окт-2013 21:33

[Профиль]  [ЛС] 

farid0888

Стаж: 5 лет 4 месяца

Сообщений: 232

Симпатии: 49

RIKIMARUXXX, Понятно тогда подожду

Создавать темы 26-Окт-2013 23:09

[Профиль]  [ЛС] 

farid0888

Стаж: 5 лет 4 месяца

Сообщений: 232

Симпатии: 49

Ребята не уходите с раздачи будьте людми скачали дайте скачать и другим!

Создавать темы 26-Окт-2013 23:11

[Профиль]  [ЛС] 

faikullo

Стаж: 4 года 11 месяцев

Сообщений: 30

действительно жесть, не могу скачать уже дней десять как по 0,2 Кб/с качает
имейте совесть скачавшие

Создавать темы 07-Ноя-2013 09:59

[Профиль]  [ЛС] 

farid0888

Стаж: 5 лет 4 месяца

Сообщений: 232

Симпатии: 49

faikullo, а я уже месяц качаю

Создавать темы 08-Дек-2013 00:26

[Профиль]  [ЛС] 

farid0888

Стаж: 5 лет 4 месяца

Сообщений: 232

Симпатии: 49

Ребята помогите пожалуйста скачать фильм

Создавать темы 08-Дек-2013 23:14

[Профиль]  [ЛС] 

farid0888

Стаж: 5 лет 4 месяца

Сообщений: 232

Симпатии: 49

Вот бы показывали бы список скачавшых

Создавать темы 29-Дек-2013 22:44

[Профиль]  [ЛС] 

bes_t

Стаж: 6 лет 5 месяцев

Сообщений: 74

Симпатии: 11

спасибо за фильму)

Создавать темы 17-Фев-2014 19:57

[Профиль]  [ЛС] 

otaw_23

Стаж: 4 года 4 месяца

Сообщений: 3

razdacha budet

Создавать темы 15-Мар-2014 11:29

[Профиль]  [ЛС] 
Показать сообщения:    
Ответить на тему

Текущее время: 20-Сен 05:25

Часовой пояс: UTC + 5



Вы не можете начинать темы
Вы не можете отвечать на сообщения
Вы не можете редактировать свои сообщения
Вы не можете удалять свои сообщения
Вы не можете голосовать в опросах
Вы не можете прикреплять файлы к сообщениям
Вы не можете скачивать файлы