Грязная компания за честные выборы! / The Campaign (Джей Роуч / Jay Roach) [2012 г., Комедия, HDRip] MVO

Ответить на тему
 

DuRango ®

Стаж: 4 года 7 месяцев

Сообщений: 70

Симпатии: 3

Грязная компания за честные выборы! / The Campaign
Год выпуска: 2012
Страна: США
Жанр: Комедия
Продолжительность: 01:25:29
Перевод: Профессиональный (многоголосый закадровый)
Режиссер: Джей Роуч / Jay Roach
В ролях: Уилл Феррелл, Зак Галифианакис, Джейсон Судейкис, Сара Бэйкер, Дилан МакДермотт, Кэтрин ЛаНаса, Брайан Кокс, Джон Литгоу, Дэн Эйкройд, Скотт А. Мартин
Описание: Два конкурирующих политика Кэм Брэди и Марти Хаггинс, пытаются победить на выборах, чтобы представлять свой небольшой штат Северная Каролина в Палате представителей США. Каждый при этом использует свои методы для достижения наилучшего результата.
Качество: HDRip
Формат: AVI
Видео: 720x400 (1.80:1), 23.976 fps, XviD build 50 ~2033 kbps avg, 0.29 bit/pixel
Аудио: 48 kHz, AC3 Dolby Digital, 3/2 (L,C,R,l,r) + LFE ch, ~384.00 kbps avg

MediaInfo

General
Complete name : C:\Share\Grjaznaja.kampanija.za.chestnye.vybory_HDRip.avi
Format : AVI
Format/Info : Audio Video Interleave
File size : 1.45 GiB
Duration : 1h 25mn
Overall bit rate : 2 427 Kbps
Writing application : VirtualDubMod 1.5.10.2 (build 2540/release)
Writing library : VirtualDubMod build 2540/release
Video
ID : 0
Format : MPEG-4 Visual
Format profile : Advanced [email protected]
Format settings, BVOP : 1
Format settings, QPel : No
Format settings, GMC : No warppoints
Format settings, Matrix : Custom
Codec ID : XVID
Codec ID/Hint : XviD
Duration : 1h 25mn
Bit rate : 2 034 Kbps
Width : 720 pixels
Height : 400 pixels
Display aspect ratio : 16:9
Frame rate : 23.976 fps
Color space : YUV
Chroma subsampling : 4:2:0
Bit depth : 8 bits
Scan type : Progressive
Compression mode : Lossy
Bits/(Pixel*Frame) : 0.294
Stream size : 1.21 GiB (84%)
Writing library : XviD 1.2.1 (UTC 2008-12-04)
Audio
ID : 1
Format : AC-3
Format/Info : Audio Coding 3
Mode extension : CM (complete main)
Format settings, Endianness : Big
Codec ID : 2000
Duration : 1h 25mn
Bit rate mode : Constant
Bit rate : 384 Kbps
Channel(s) : 6 channels
Channel positions : Front: L C R, Side: L R, LFE
Sampling rate : 48.0 KHz
Bit depth : 16 bits
Compression mode : Lossy
Stream size : 235 MiB (16%)
Alignment : Split accross interleaves
Interleave, duration : 42 ms (1.00 video frame)
Interleave, preload duration : 500 ms

Скриншот с названием

Скриншоты

Отдельная благодарность пользователю torsaz за активную раздачу.


Последний раз редактировалось: DuRango (2013-10-29 11:34), всего редактировалось 2 раз(а)

Создавать темы 26-Окт-2013 02:51

[Профиль]  [ЛС] 

totsamiy

Стаж: 5 лет 4 месяца

Сообщений: 145

Симпатии: 22

Фильм 2012 года, а релиз на DVD 31 января 2013.................... тааак долго????

Создавать темы 27-Окт-2013 10:22

[Профиль]  [ЛС] 

flash008

Стаж: 5 лет 9 месяцев

Сообщений: 99

Когда раздача?

Создавать темы 27-Окт-2013 10:38

[Профиль]  [ЛС] 

DuRango ®

Стаж: 4 года 7 месяцев

Сообщений: 70

Симпатии: 3

Уважаемые, прошу вас не сердиться, и набраться терпения, у меня провайдер УО, скорость отдачи 50-40 кб/с, надеюсь на ваше понимание.

Создавать темы 27-Окт-2013 18:25

[Профиль]  [ЛС] 
Показать сообщения:    
Ответить на тему

Текущее время: 23-Окт 22:20

Часовой пояс: UTC + 5



Вы не можете начинать темы
Вы не можете отвечать на сообщения
Вы не можете редактировать свои сообщения
Вы не можете удалять свои сообщения
Вы не можете голосовать в опросах
Вы не можете прикреплять файлы к сообщениям
Вы не можете скачивать файлы