Час Пик: Трилогия / Rush Hour: Trilogy (Бретт Рэтнер) [1998 - 2007 г., Боевик, Комедия, Криминал, Триллер, BDRip][720p]

Страницы :  1, 2  След.

Ответить на тему
 

richdad ®

Стаж: 4 года 2 месяца

Сообщений: 48

Симпатии: 7

Час пик / Rush Hour- Год выпуска: 1998
Страна: США
Жанр: Боевик, Комедия, Криминал, Триллер
Продолжительность: 01:37:54
Перевод: Профессиональный (полное дублирование) [Лицензия]-Режиссер: Бретт Рэтнер-В ролях: Джеки Чан, Крис Такер, Кен Люн, Майкл Чоу, Марк Ролстон, Роберт Литман, Том Уилкинсон, Филип Бейкер Холл, Ци Ма, Элизабет Пенья и др.-Описание: В Лос-Анджелесе злодеи похищают малолетнюю дочь китайского консула, которую в Гонконге учил кунг-фу инспектор Ли. Консул вызывает Ли в Америку, чтобы тот принял участие в освобождении девочки.Агенты ФБР обратились к полиции с просьбой выделить им самого никчемного сотрудника, чтобы тот взял китайца на себя и показал ему достопримечательности, а главное, не позволил вмешиваться в их дела.Им оказывается самый болтливый полицейский Картер. Естественно, после ряда разногласий и недоразумений они объединяют усилия и всерьез берутся за вызволение заложницы.-Бюджет: $33 000 000
Кассовые сборы: $141 186 864-Качество: BDRip
Формат: MKV
Видео кодек: H.26x
Аудио кодек: AC3
Видео: 5560 Kbps 1280x544 23.976 fps
Аудио [RUS]: AC-3, 384 Kbps, 6 channels, 48.0 KHz,
Размер файла: 4,06 GB- 

Скриншоты



MediaInfo

General
Unique ID : 194214738724293428377493815236704771790 (0x921C65E98E9343429F57B1BB033A9ECE)
Complete name : C:\Развлечения\Фильмы\Час пик\Час Пик 1.mkv
Format : Matroska
Format version : Version 2
File size : 4.06 GiB
Duration : 1h 37mn
Overall bit rate : 5 939 Kbps
Encoded date : UTC 2011-01-26 06:00:42
Writing application : mkvmerge v3.2.0 ('Beginnings') built on Feb 12 2010 16:46:17
Writing library : libebml v0.7.9 + libmatroska v0.8.1
Video
ID : 1
Format : AVC
Format/Info : Advanced Video Codec
Format profile : [email protected]
Format settings, CABAC : Yes
Format settings, ReFrames : 8 frames
Codec ID : V_MPEG4/ISO/AVC
Duration : 1h 37mn
Bit rate : 5 560 Kbps
Width : 1 280 pixels
Height : 544 pixels
Display aspect ratio : 2.35:1
Frame rate mode : Constant
Frame rate : 23.976 fps
Color space : YUV
Chroma subsampling : 4:2:0
Bit depth : 8 bits
Scan type : Progressive
Bits/(Pixel*Frame) : 0.333
Stream size : 3.72 GiB (92%)
Writing library : x264 core 54
Encoding settings : cabac=1 / ref=5 / deblock=1:-3:-2 / analyse=0x3:0x133 / me=umh / subme=7 / brdo=1 / mixed_ref=1 / me_range=16 / chroma_me=1 / trellis=1 / 8x8dct=1 / cqm=2 / deadzone=21,11 / chroma_qp_offset=0 / threads=3 / nr=0 / decimate=1 / mbaff=0 / bframes=3 / b_pyramid=1 / b_adapt=1 / b_bias=0 / direct=3 / wpredb=1 / bime=1 / keyint=250 / keyint_min=25 / scenecut=40(pre) / rc=2pass / bitrate=5560 / ratetol=1.0 / rceq='blurCplx^(1-qComp)' / qcomp=0.60 / qpmin=10 / qpmax=51 / qpstep=4 / cplxblur=20.0 / qblur=0.5 / ip_ratio=1.40 / pb_ratio=1.30
Language : English
Default : Yes
Forced : No
Audio
ID : 2
Format : AC-3
Format/Info : Audio Coding 3
Mode extension : CM (complete main)
Format settings, Endianness : Big
Codec ID : A_AC3
Duration : 1h 37mn
Bit rate mode : Constant
Bit rate : 384 Kbps
Channel(s) : 6 channels
Channel positions : Front: L C R, Side: L R, LFE
Sampling rate : 48.0 KHz
Bit depth : 16 bits
Compression mode : Lossy
Stream size : 269 MiB (6%)
Language : Russian
Default : Yes
Forced : No
-Час пик 2 / Rush Hour 2- Год выпуска: 2001
Страна: Гонконг, США
Жанр: Боевик, Комедия, Криминал, Триллер
Продолжительность: 01:30:00
Перевод: Профессиональный (полное дублирование) [Лицензия]-Режиссер: Бретт Рэтнер-В ролях: Джеки Чан, Крис Такер, Алан Кинг, Джон Лоун, Кеннет Цан, Лиза Ло Цицеро, Мей Меланкон, Розелин Санчез, Харрис Юлин, Чжан Цзыи и др.-Описание: История начинается непосредственно с того момента, на котором закончилась первая часть — полицейские Ли и Картер прибывают в Гонконг по следам преступников, замышляющих похищение китайский сокровищ и продажи их в штатах.По мере того, как детективы Картер и Ли становятся все больше и больше запутанными в преступном заговоре, вовлекающем их в смертоносную Триаду, поездка в стиле нон-стоп от Гонконга до Лос-Анджелеса и Лас-Вегаса, оборачивается для них безумно интересным, смешным и в то же время опасным приключением.Полицейские должны использовать все свои навыки, чтобы заманить в ловушку одного из самых опасных преступников в мире.-Бюджет: $90 000 000
Кассовые сборы: $226 164 286-Качество: BDRip
Формат: MKV
Видео кодек: H.26x
Аудио кодек: AC3
Видео: 6557 Kbps 1280x512 23.976 fps
Аудио [RUS]: AC-3, 448 Kbps, 2 channels, 48.0 KHz
Размер файла: 4,41 GB- -

Скриншоты



MediaInfo

General
Unique ID : 240623018119309902757519968501057888280 (0xB5064EBE3FF10AE8998132F6D766A018)
Complete name : C:\Развлечения\Фильмы\Час пик\Час Пик 2.mkv
Format : Matroska
Format version : Version 2
File size : 4.41 GiB
Duration : 1h 30mn
Overall bit rate : 7 010 Kbps
Encoded date : UTC 2011-01-26 06:00:43
Writing application : mkvmerge v3.2.0 ('Beginnings') built on Feb 12 2010 16:46:17
Writing library : libebml v0.7.9 + libmatroska v0.8.1
Video
ID : 1
Format : AVC
Format/Info : Advanced Video Codec
Format profile : [email protected]
Format settings, CABAC : Yes
Format settings, ReFrames : 4 frames
Codec ID : V_MPEG4/ISO/AVC
Duration : 1h 30mn
Bit rate : 6 557 Kbps
Width : 1 280 pixels
Height : 512 pixels
Display aspect ratio : 2.500
Frame rate mode : Constant
Frame rate : 23.976 fps
Color space : YUV
Chroma subsampling : 4:2:0
Bit depth : 8 bits
Scan type : Progressive
Bits/(Pixel*Frame) : 0.417
Stream size : 4.04 GiB (92%)
Writing library : x264 core 48 svn-537
Encoding settings : cabac=1 / ref=3 / deblock=1:0:0 / analyse=0x3:0x113 / me=hex / subme=5 / brdo=0 / mixed_ref=0 / me_range=16 / chroma_me=1 / trellis=1 / 8x8dct=1 / cqm=0 / chroma_qp_offset=0 / slices=4 / nr=0 / decimate=1 / bframes=3 / b_pyramid=0 / b_adapt=1 / b_bias=0 / direct=2 / wpredb=1 / bime=0 / keyint=250 / keyint_min=25 / scenecut=40 / rc=2pass / bitrate=6557 / ratetol=1.0 / rceq='blurCplx^(1-qComp)' / qcomp=0.60 / qpmin=10 / qpmax=51 / qpstep=4 / cplxblur=20.0 / qblur=0.5 / ip_ratio=1.40 / pb_ratio=1.30
Language : English
Default : Yes
Forced : No
Audio
ID : 2
Format : AC-3
Format/Info : Audio Coding 3
Mode extension : CM (complete main)
Format settings, Endianness : Big
Codec ID : A_AC3
Duration : 1h 30mn
Bit rate mode : Constant
Bit rate : 448 Kbps
Channel(s) : 2 channels
Channel positions : Front: L R
Sampling rate : 48.0 KHz
Bit depth : 16 bits
Compression mode : Lossy
Delay relative to video : -125ms
Stream size : 288 MiB (6%)
Title : Дубляж
Language : Russian
Default : Yes
Forced : No
-Час пик 3 / Rush Hour 3- Год выпуска: 2007
Страна: Германия, США
Жанр: Боевик, Комедия, Криминал, Триллер
Продолжительность: 01:30:47
Перевод: Профессиональный (полное дублирование) [Лицензия]-Режиссер: Бретт Рэтнер-В ролях: Джеки Чан, Крис Такер, Дэна Айви, Ёуки Кудо, Иван Атталь, Макс фон Сюдов, Ноэми Ленуар, Хироюки Санада, Ци Ма, Чжан Цзинчу и др.-Описание: Лос-анджелесского полицейского Джеймса Картера, допустившего грубую ошибку при аресте подозреваемого, переводят на гораздо менее престижную должность в дорожной полиции. Тем временем гонконгский полицейский инспектор Ли получает спецзадание: он должен охранять китайского посла Хана, который направляется в Лос-Анджелес, чтобы произнести там речь на саммите Всемирного уголовного суда. Хан намеревается разоблачить интриги китайской Триады — самого опасного криминального синдиката в мире — и вывести на чистую воду преступных боссов. Представители Триады, разумеется, не дремлют. Они отправляют в Лос-Анджелес наемного убийцу, которому удается ранить посла в тот самый момент, когда он начинает произносить свою разоблачительную речь. Ли бросается вдогонку за преступником. Тем временем Картер, услышав по полицейскому радио сообщение о покушении на посла, мчится на место преступления… и, естественно, только путается под ногами у Ли.-Бюджет: $140 000 000
Кассовые сборы: $140 125 968-Качество: BDRip
Формат: MKV
Видео кодек: H.26x
Аудио кодек: AC3
Видео: 5384 Kbps 1280x528 23.976 fps
Аудио [RUS]: AC-3, 448 Kbps, 6 channels, 48.0 KHz, 6ch 448 kbps
Размер файла: 3,70 GB- -

Скриншоты



MediaInfo

General
Unique ID : 207849661754394602010710330029429866520 (0x9C5E638524ABBC59B09550C65D9DC018)
Complete name : C:\Развлечения\Фильмы\Час пик\Час пик 3.mkv
Format : Matroska
Format version : Version 2
File size : 3.70 GiB
Duration : 1h 30mn
Overall bit rate : 5 834 Kbps
Movie name : -=HANSMER=-
Encoded date : UTC 2011-03-11 23:33:01
Writing application : mkvmerge v3.2.0 ('Beginnings') built on Feb 12 2010 16:46:17
Writing library : libebml v0.7.9 + libmatroska v0.8.1
Video
ID : 1
Format : AVC
Format/Info : Advanced Video Codec
Format profile : [email protected]
Format settings, CABAC : Yes
Format settings, ReFrames : 8 frames
Codec ID : V_MPEG4/ISO/AVC
Duration : 1h 30mn
Bit rate : 5 384 Kbps
Width : 1 280 pixels
Height : 528 pixels
Display aspect ratio : 2.40:1
Frame rate mode : Constant
Frame rate : 23.976 fps
Color space : YUV
Chroma subsampling : 4:2:0
Bit depth : 8 bits
Scan type : Progressive
Bits/(Pixel*Frame) : 0.332
Stream size : 3.34 GiB (90%)
Title : Rush.Hour.3.BDRip.720p.x264
Writing library : x264 core 57 svn-709C
Encoding settings : cabac=1 / ref=5 / deblock=1:0:0 / analyse=0x3:0x113 / me=umh / fpel_cmp=sad / subme=6 / me-prepass=0 / brdo=0 / mixed_ref=1 / me_range=16 / chroma_me=1 / trellis=1 / 8x8dct=1 / cqm=2 / deadzone=4,6 / chroma_qp_offset=0 / threads=3 / nr=0 / decimate=1 / mbaff=0 / bframes=3 / b_pyramid=1 / b_adapt=1 / b_bias=0 / direct=3 / wpredb=1 / bime=1 / keyint=250 / keyint_min=25 / scenecut=40(pre) / rc=2pass / bitrate=5384 / ratetol=1.0 / rceq='blurCplx^(1-qComp)' / qcomp=0.60 / qpmin=10 / qpmax=51 / qpstep=4 / cplxblur=20.0 / qblur=0.5 / ip_ratio=1.40 / pb_ratio=1.30 / zones=121627,130606,b=0.2 / aq=1:0.3:15.0
Language : English
Default : Yes
Forced : No
Audio
ID : 2
Format : AC-3
Format/Info : Audio Coding 3
Mode extension : CM (complete main)
Format settings, Endianness : Big
Codec ID : A_AC3
Duration : 1h 30mn
Bit rate mode : Constant
Bit rate : 448 Kbps
Channel(s) : 6 channels
Channel positions : Front: L C R, Side: L R, LFE
Sampling rate : 48.0 KHz
Bit depth : 16 bits
Compression mode : Lossy
Stream size : 291 MiB (8%)
Title : AC3, 6ch 448 kbps
Language : Russian
Default : Yes
Forced : No


Последний раз редактировалось: richdad (2013-10-27 16:35), всего редактировалось 6 раз(а)

Создавать темы 27-Окт-2013 14:12

[Профиль]  [ЛС] 

npocTo kpacaB4uk

Стаж: 4 года 7 месяцев

Сообщений: 321

Симпатии: 20

Спасибо за релиз, золотце не помешало бы))

Создавать темы 27-Окт-2013 14:14

[Профиль]  [ЛС] 

Emigrate

Стаж: 5 лет 9 месяцев

Сообщений: 110

Симпатии: 1

забираю

Создавать темы 27-Окт-2013 14:14

[Профиль]  [ЛС] 

Robot-IX

Стаж: 5 лет 6 месяцев

Сообщений: 223

Симпатии: 9

Спасибо за релиз, золотце не помешало бы))
не шедевреален.. , но в коллекции быть может ))
я думаю и без золота разберут! +

Создавать темы 27-Окт-2013 14:20

[Профиль]  [ЛС] 

baxa_1818

Стаж: 5 лет 5 месяцев

Сообщений: 62

Симпатии: 3

как я жду Доспехи Бога 1080р.

Создавать темы 27-Окт-2013 14:27

[Профиль]  [ЛС] 

richdad ®

Стаж: 4 года 2 месяца

Сообщений: 48

Симпатии: 7

медиа инфо не надо?
вот:
General
Unique ID : 194214738724293428377493815236704771790 (0x921C65E98E9343429F57B1BB033A9ECE)
Complete name : C:\Развлечения\Фильмы\Час пик\Час Пик 1.mkv
Format : Matroska
Format version : Version 2
File size : 4.06 GiB
Duration : 1h 37mn
Overall bit rate : 5 939 Kbps
Encoded date : UTC 2011-01-26 06:00:42
Writing application : mkvmerge v3.2.0 ('Beginnings') built on Feb 12 2010 16:46:17
Writing library : libebml v0.7.9 + libmatroska v0.8.1
Video
ID : 1
Format : AVC
Format/Info : Advanced Video Codec
Format profile : [email protected]
Format settings, CABAC : Yes
Format settings, ReFrames : 8 frames
Codec ID : V_MPEG4/ISO/AVC
Duration : 1h 37mn
Bit rate : 5 560 Kbps
Width : 1 280 pixels
Height : 544 pixels
Display aspect ratio : 2.35:1
Frame rate mode : Constant
Frame rate : 23.976 fps
Color space : YUV
Chroma subsampling : 4:2:0
Bit depth : 8 bits
Scan type : Progressive
Bits/(Pixel*Frame) : 0.333
Stream size : 3.72 GiB (92%)
Writing library : x264 core 54
Encoding settings : cabac=1 / ref=5 / deblock=1:-3:-2 / analyse=0x3:0x133 / me=umh / subme=7 / brdo=1 / mixed_ref=1 / me_range=16 / chroma_me=1 / trellis=1 / 8x8dct=1 / cqm=2 / deadzone=21,11 / chroma_qp_offset=0 / threads=3 / nr=0 / decimate=1 / mbaff=0 / bframes=3 / b_pyramid=1 / b_adapt=1 / b_bias=0 / direct=3 / wpredb=1 / bime=1 / keyint=250 / keyint_min=25 / scenecut=40(pre) / rc=2pass / bitrate=5560 / ratetol=1.0 / rceq='blurCplx^(1-qComp)' / qcomp=0.60 / qpmin=10 / qpmax=51 / qpstep=4 / cplxblur=20.0 / qblur=0.5 / ip_ratio=1.40 / pb_ratio=1.30
Language : English
Default : Yes
Forced : No
Audio
ID : 2
Format : AC-3
Format/Info : Audio Coding 3
Mode extension : CM (complete main)
Format settings, Endianness : Big
Codec ID : A_AC3
Duration : 1h 37mn
Bit rate mode : Constant
Bit rate : 384 Kbps
Channel(s) : 6 channels
Channel positions : Front: L C R, Side: L R, LFE
Sampling rate : 48.0 KHz
Bit depth : 16 bits
Compression mode : Lossy
Stream size : 269 MiB (6%)
Language : Russian
Default : Yes
Forced : No
General
Unique ID : 240623018119309902757519968501057888280 (0xB5064EBE3FF10AE8998132F6D766A018)
Complete name : C:\Развлечения\Фильмы\Час пик\Час Пик 2.mkv
Format : Matroska
Format version : Version 2
File size : 4.41 GiB
Duration : 1h 30mn
Overall bit rate : 7 010 Kbps
Encoded date : UTC 2011-01-26 06:00:43
Writing application : mkvmerge v3.2.0 ('Beginnings') built on Feb 12 2010 16:46:17
Writing library : libebml v0.7.9 + libmatroska v0.8.1
Video
ID : 1
Format : AVC
Format/Info : Advanced Video Codec
Format profile : [email protected]
Format settings, CABAC : Yes
Format settings, ReFrames : 4 frames
Codec ID : V_MPEG4/ISO/AVC
Duration : 1h 30mn
Bit rate : 6 557 Kbps
Width : 1 280 pixels
Height : 512 pixels
Display aspect ratio : 2.500
Frame rate mode : Constant
Frame rate : 23.976 fps
Color space : YUV
Chroma subsampling : 4:2:0
Bit depth : 8 bits
Scan type : Progressive
Bits/(Pixel*Frame) : 0.417
Stream size : 4.04 GiB (92%)
Writing library : x264 core 48 svn-537
Encoding settings : cabac=1 / ref=3 / deblock=1:0:0 / analyse=0x3:0x113 / me=hex / subme=5 / brdo=0 / mixed_ref=0 / me_range=16 / chroma_me=1 / trellis=1 / 8x8dct=1 / cqm=0 / chroma_qp_offset=0 / slices=4 / nr=0 / decimate=1 / bframes=3 / b_pyramid=0 / b_adapt=1 / b_bias=0 / direct=2 / wpredb=1 / bime=0 / keyint=250 / keyint_min=25 / scenecut=40 / rc=2pass / bitrate=6557 / ratetol=1.0 / rceq='blurCplx^(1-qComp)' / qcomp=0.60 / qpmin=10 / qpmax=51 / qpstep=4 / cplxblur=20.0 / qblur=0.5 / ip_ratio=1.40 / pb_ratio=1.30
Language : English
Default : Yes
Forced : No
Audio
ID : 2
Format : AC-3
Format/Info : Audio Coding 3
Mode extension : CM (complete main)
Format settings, Endianness : Big
Codec ID : A_AC3
Duration : 1h 30mn
Bit rate mode : Constant
Bit rate : 448 Kbps
Channel(s) : 2 channels
Channel positions : Front: L R
Sampling rate : 48.0 KHz
Bit depth : 16 bits
Compression mode : Lossy
Delay relative to video : -125ms
Stream size : 288 MiB (6%)
Title : Дубляж
Language : Russian
Default : Yes
Forced : No
General
Unique ID : 207849661754394602010710330029429866520 (0x9C5E638524ABBC59B09550C65D9DC018)
Complete name : C:\Развлечения\Фильмы\Час пик\Час пик 3.mkv
Format : Matroska
Format version : Version 2
File size : 3.70 GiB
Duration : 1h 30mn
Overall bit rate : 5 834 Kbps
Movie name : -=HANSMER=-
Encoded date : UTC 2011-03-11 23:33:01
Writing application : mkvmerge v3.2.0 ('Beginnings') built on Feb 12 2010 16:46:17
Writing library : libebml v0.7.9 + libmatroska v0.8.1
Video
ID : 1
Format : AVC
Format/Info : Advanced Video Codec
Format profile : [email protected]
Format settings, CABAC : Yes
Format settings, ReFrames : 8 frames
Codec ID : V_MPEG4/ISO/AVC
Duration : 1h 30mn
Bit rate : 5 384 Kbps
Width : 1 280 pixels
Height : 528 pixels
Display aspect ratio : 2.40:1
Frame rate mode : Constant
Frame rate : 23.976 fps
Color space : YUV
Chroma subsampling : 4:2:0
Bit depth : 8 bits
Scan type : Progressive
Bits/(Pixel*Frame) : 0.332
Stream size : 3.34 GiB (90%)
Title : Rush.Hour.3.BDRip.720p.x264
Writing library : x264 core 57 svn-709C
Encoding settings : cabac=1 / ref=5 / deblock=1:0:0 / analyse=0x3:0x113 / me=umh / fpel_cmp=sad / subme=6 / me-prepass=0 / brdo=0 / mixed_ref=1 / me_range=16 / chroma_me=1 / trellis=1 / 8x8dct=1 / cqm=2 / deadzone=4,6 / chroma_qp_offset=0 / threads=3 / nr=0 / decimate=1 / mbaff=0 / bframes=3 / b_pyramid=1 / b_adapt=1 / b_bias=0 / direct=3 / wpredb=1 / bime=1 / keyint=250 / keyint_min=25 / scenecut=40(pre) / rc=2pass / bitrate=5384 / ratetol=1.0 / rceq='blurCplx^(1-qComp)' / qcomp=0.60 / qpmin=10 / qpmax=51 / qpstep=4 / cplxblur=20.0 / qblur=0.5 / ip_ratio=1.40 / pb_ratio=1.30 / zones=121627,130606,b=0.2 / aq=1:0.3:15.0
Language : English
Default : Yes
Forced : No
Audio
ID : 2
Format : AC-3
Format/Info : Audio Coding 3
Mode extension : CM (complete main)
Format settings, Endianness : Big
Codec ID : A_AC3
Duration : 1h 30mn
Bit rate mode : Constant
Bit rate : 448 Kbps
Channel(s) : 6 channels
Channel positions : Front: L C R, Side: L R, LFE
Sampling rate : 48.0 KHz
Bit depth : 16 bits
Compression mode : Lossy
Stream size : 291 MiB (8%)
Title : AC3, 6ch 448 kbps
Language : Russian
Default : Yes
Forced : No

Создавать темы 27-Окт-2013 16:12

[Профиль]  [ЛС] 

Иви

Стаж: 5 лет 9 месяцев

Сообщений: 688

Симпатии: 65

медиаинфу каждого из фильмов добавьте

Создавать темы 27-Окт-2013 16:13

[Профиль]  [ЛС] 

Иви

Стаж: 5 лет 9 месяцев

Сообщений: 688

Симпатии: 65

медиа инфо не надо?
вот:
General
Unique ID : 194214738724293428377493815236704771790 (0x921C65E98E9343429F57B1BB033A9ECE)
Complete name : C:\Развлечения\Фильмы\Час пик\Час Пик 1.mkv
Format : Matroska
Format version : Version 2
File size : 4.06 GiB
Duration : 1h 37mn
Overall bit rate : 5 939 Kbps
Encoded date : UTC 2011-01-26 06:00:42
Writing application : mkvmerge v3.2.0 ('Beginnings') built on Feb 12 2010 16:46:17
Writing library : libebml v0.7.9 + libmatroska v0.8.1
Video
ID : 1
Format : AVC
Format/Info : Advanced Video Codec
Format profile : [email protected]
Format settings, CABAC : Yes
Format settings, ReFrames : 8 frames
Codec ID : V_MPEG4/ISO/AVC
Duration : 1h 37mn
Bit rate : 5 560 Kbps
Width : 1 280 pixels
Height : 544 pixels
Display aspect ratio : 2.35:1
Frame rate mode : Constant
Frame rate : 23.976 fps
Color space : YUV
Chroma subsampling : 4:2:0
Bit depth : 8 bits
Scan type : Progressive
Bits/(Pixel*Frame) : 0.333
Stream size : 3.72 GiB (92%)
Writing library : x264 core 54
Encoding settings : cabac=1 / ref=5 / deblock=1:-3:-2 / analyse=0x3:0x133 / me=umh / subme=7 / brdo=1 / mixed_ref=1 / me_range=16 / chroma_me=1 / trellis=1 / 8x8dct=1 / cqm=2 / deadzone=21,11 / chroma_qp_offset=0 / threads=3 / nr=0 / decimate=1 / mbaff=0 / bframes=3 / b_pyramid=1 / b_adapt=1 / b_bias=0 / direct=3 / wpredb=1 / bime=1 / keyint=250 / keyint_min=25 / scenecut=40(pre) / rc=2pass / bitrate=5560 / ratetol=1.0 / rceq='blurCplx^(1-qComp)' / qcomp=0.60 / qpmin=10 / qpmax=51 / qpstep=4 / cplxblur=20.0 / qblur=0.5 / ip_ratio=1.40 / pb_ratio=1.30
Language : English
Default : Yes
Forced : No
Audio
ID : 2
Format : AC-3
Format/Info : Audio Coding 3
Mode extension : CM (complete main)
Format settings, Endianness : Big
Codec ID : A_AC3
Duration : 1h 37mn
Bit rate mode : Constant
Bit rate : 384 Kbps
Channel(s) : 6 channels
Channel positions : Front: L C R, Side: L R, LFE
Sampling rate : 48.0 KHz
Bit depth : 16 bits
Compression mode : Lossy
Stream size : 269 MiB (6%)
Language : Russian
Default : Yes
Forced : No
General
Unique ID : 240623018119309902757519968501057888280 (0xB5064EBE3FF10AE8998132F6D766A018)
Complete name : C:\Развлечения\Фильмы\Час пик\Час Пик 2.mkv
Format : Matroska
Format version : Version 2
File size : 4.41 GiB
Duration : 1h 30mn
Overall bit rate : 7 010 Kbps
Encoded date : UTC 2011-01-26 06:00:43
Writing application : mkvmerge v3.2.0 ('Beginnings') built on Feb 12 2010 16:46:17
Writing library : libebml v0.7.9 + libmatroska v0.8.1
Video
ID : 1
Format : AVC
Format/Info : Advanced Video Codec
Format profile : [email protected]
Format settings, CABAC : Yes
Format settings, ReFrames : 4 frames
Codec ID : V_MPEG4/ISO/AVC
Duration : 1h 30mn
Bit rate : 6 557 Kbps
Width : 1 280 pixels
Height : 512 pixels
Display aspect ratio : 2.500
Frame rate mode : Constant
Frame rate : 23.976 fps
Color space : YUV
Chroma subsampling : 4:2:0
Bit depth : 8 bits
Scan type : Progressive
Bits/(Pixel*Frame) : 0.417
Stream size : 4.04 GiB (92%)
Writing library : x264 core 48 svn-537
Encoding settings : cabac=1 / ref=3 / deblock=1:0:0 / analyse=0x3:0x113 / me=hex / subme=5 / brdo=0 / mixed_ref=0 / me_range=16 / chroma_me=1 / trellis=1 / 8x8dct=1 / cqm=0 / chroma_qp_offset=0 / slices=4 / nr=0 / decimate=1 / bframes=3 / b_pyramid=0 / b_adapt=1 / b_bias=0 / direct=2 / wpredb=1 / bime=0 / keyint=250 / keyint_min=25 / scenecut=40 / rc=2pass / bitrate=6557 / ratetol=1.0 / rceq='blurCplx^(1-qComp)' / qcomp=0.60 / qpmin=10 / qpmax=51 / qpstep=4 / cplxblur=20.0 / qblur=0.5 / ip_ratio=1.40 / pb_ratio=1.30
Language : English
Default : Yes
Forced : No
Audio
ID : 2
Format : AC-3
Format/Info : Audio Coding 3
Mode extension : CM (complete main)
Format settings, Endianness : Big
Codec ID : A_AC3
Duration : 1h 30mn
Bit rate mode : Constant
Bit rate : 448 Kbps
Channel(s) : 2 channels
Channel positions : Front: L R
Sampling rate : 48.0 KHz
Bit depth : 16 bits
Compression mode : Lossy
Delay relative to video : -125ms
Stream size : 288 MiB (6%)
Title : Дубляж
Language : Russian
Default : Yes
Forced : No
General
Unique ID : 207849661754394602010710330029429866520 (0x9C5E638524ABBC59B09550C65D9DC018)
Complete name : C:\Развлечения\Фильмы\Час пик\Час пик 3.mkv
Format : Matroska
Format version : Version 2
File size : 3.70 GiB
Duration : 1h 30mn
Overall bit rate : 5 834 Kbps
Movie name : -=HANSMER=-
Encoded date : UTC 2011-03-11 23:33:01
Writing application : mkvmerge v3.2.0 ('Beginnings') built on Feb 12 2010 16:46:17
Writing library : libebml v0.7.9 + libmatroska v0.8.1
Video
ID : 1
Format : AVC
Format/Info : Advanced Video Codec
Format profile : [email protected]
Format settings, CABAC : Yes
Format settings, ReFrames : 8 frames
Codec ID : V_MPEG4/ISO/AVC
Duration : 1h 30mn
Bit rate : 5 384 Kbps
Width : 1 280 pixels
Height : 528 pixels
Display aspect ratio : 2.40:1
Frame rate mode : Constant
Frame rate : 23.976 fps
Color space : YUV
Chroma subsampling : 4:2:0
Bit depth : 8 bits
Scan type : Progressive
Bits/(Pixel*Frame) : 0.332
Stream size : 3.34 GiB (90%)
Title : Rush.Hour.3.BDRip.720p.x264
Writing library : x264 core 57 svn-709C
Encoding settings : cabac=1 / ref=5 / deblock=1:0:0 / analyse=0x3:0x113 / me=umh / fpel_cmp=sad / subme=6 / me-prepass=0 / brdo=0 / mixed_ref=1 / me_range=16 / chroma_me=1 / trellis=1 / 8x8dct=1 / cqm=2 / deadzone=4,6 / chroma_qp_offset=0 / threads=3 / nr=0 / decimate=1 / mbaff=0 / bframes=3 / b_pyramid=1 / b_adapt=1 / b_bias=0 / direct=3 / wpredb=1 / bime=1 / keyint=250 / keyint_min=25 / scenecut=40(pre) / rc=2pass / bitrate=5384 / ratetol=1.0 / rceq='blurCplx^(1-qComp)' / qcomp=0.60 / qpmin=10 / qpmax=51 / qpstep=4 / cplxblur=20.0 / qblur=0.5 / ip_ratio=1.40 / pb_ratio=1.30 / zones=121627,130606,b=0.2 / aq=1:0.3:15.0
Language : English
Default : Yes
Forced : No
Audio
ID : 2
Format : AC-3
Format/Info : Audio Coding 3
Mode extension : CM (complete main)
Format settings, Endianness : Big
Codec ID : A_AC3
Duration : 1h 30mn
Bit rate mode : Constant
Bit rate : 448 Kbps
Channel(s) : 6 channels
Channel positions : Front: L C R, Side: L R, LFE
Sampling rate : 48.0 KHz
Bit depth : 16 bits
Compression mode : Lossy
Stream size : 291 MiB (8%)
Title : AC3, 6ch 448 kbps
Language : Russian
Default : Yes
Forced : No
ок, сейчас шапку подправлю

Создавать темы 27-Окт-2013 16:23

[Профиль]  [ЛС] 

Иви

Стаж: 5 лет 9 месяцев

Сообщений: 688

Симпатии: 65

сейчас шапку подправлю
готово

Создавать темы 27-Окт-2013 16:34

[Профиль]  [ЛС] 

escapepro

Стаж: 5 лет 7 месяцев

Сообщений: 26

Симпатии: 1

не шедевреален.. , но в коллекции быть может ))
я думаю и без золота разберут! +
Рука и ногами!!!

Создавать темы 27-Окт-2013 20:44

[Профиль]  [ЛС] 

djek

Стаж: 5 лет 10 месяцев

Сообщений: 90

Симпатии: 4

richdad, раздаешь или нет ? у же жду 5 дней ......

Создавать темы 04-Ноя-2013 21:51

[Профиль]  [ЛС] 

ne0d1n

Стаж: 7 лет

Сообщений: 64

Симпатии: 14

ап.
Раздающий, ты где?

Создавать темы 05-Ноя-2013 01:47

[Профиль]  [ЛС] 

Sobir76

Стаж: 4 года 3 месяца

Сообщений: 12

Симпатии: 2

присоединился на раздачу=)

Создавать темы 05-Ноя-2013 22:59

[Профиль]  [ЛС] 

sir-alex

Стаж: 6 лет 8 месяцев

Сообщений: 25

Симпатии: 6

а что с третьей серией? всего три сек. показывает

Создавать темы 06-Дек-2013 20:20

[Профиль]  [ЛС] 

Sobir76

Стаж: 4 года 3 месяца

Сообщений: 12

Симпатии: 2

а что с третьей серией? всего три сек. показывает
Посмотрел на телике ЛЖ и на Самсунг И на компе .Воспроизводит нормално

Создавать темы 01-Янв-2014 13:21

[Профиль]  [ЛС] 
Показать сообщения:    
Ответить на тему

Текущее время: 18-Окт 08:55

Часовой пояс: UTC + 5



Вы не можете начинать темы
Вы не можете отвечать на сообщения
Вы не можете редактировать свои сообщения
Вы не можете удалять свои сообщения
Вы не можете голосовать в опросах
Вы не можете прикреплять файлы к сообщениям
Вы не можете скачивать файлы