Риддик / Riddick (Дэвид Туи) [2013 г., фантастика, боевик, триллер, DVDRip] [Чистый звук]

Страницы :  1, 2  След.

Тема закрыта
 

Suxrob89 ®

Стаж: 7 лет 3 месяца

Сообщений: 933

Симпатии: 564

-Риддик / Riddick-«Лучший способ отомстить - остаться в живых»- - Страна: США
Жанр: фантастика, боевик, триллер
Год выпуска: 2013
Продолжительность: 01:58:40
Перевод: Дублированный [чистый звук]-Режиссер: Дэвид Туи / David Neil Twohy-В ролях: Вин Дизель, Карл Урбан, Кэти Сакхофф, Антуанетта Никпрелаж, Рауль Трухильо, Букем Вудбайн, Хорди Молья, Ной Дэнби, Нолан Фанк, Дэйв Батиста-Описание: Риддик возвращается, бесчисленные попытки его убийства только будоражат в нём кровь и он преданный своими, и брошенный умирать на пустынной планете, сражается с людьми пришедшими убить его, как и всегда по найму каких то лиц, и хищниками живущими на планете, где он скрывается,борьба за жизнь становится страшнее, сильнее и опаснее, ведь Риддик стал ещё круче себя прежнего. Прибыв на планету и открывшие на него охоту галактические наемники-убийцы, оказываются всего навсего пешками в грандиозном плане отмщения нашего непобедимого героя. С врагами, возникающими на его пути тогда, когда это нужно самому Риддику, он начинает поход во имя мести, чтобы в конечном счете вернуться на родную Фурию и спасти ее от уничтожения. Это ещё не конец,а только начало и он отомстит...- -Качество: DVDRip
Формат: AVI
Видео кодек: XviD
Аудио кодек: AC3
Видео: 1512 kb/s, 720x304
Аудио: AC3, 128 kb/s (2 ch)

MediaInfo

D:\Riddik.2013.D.DVDRip.1400MB.avi
General
Complete name : D:\Riddik.2013.D.DVDRip.1400MB.avi
Format : AVI
Format/Info : Audio Video Interleave
File size : 1.37 GiB
Duration : 1h 58mn
Overall bit rate : 1 652 Kbps
Writing application : VirtualDubMod 1.5.10.2 (build 2540/release)
Writing library : VirtualDubMod build 2540/release
Video #0
ID : 0
Format : MPEG-4 Visual
Format profile : Advanced [email protected]
Format settings, BVOP : 1
Format settings, QPel : No
Format settings, GMC : No warppoints
Format settings, Matrix : Default (MPEG)
Codec ID : XVID
Codec ID/Hint : XviD
Duration : 1h 58mn
Bit rate : 1 512 Kbps
Width : 720 pixels
Height : 304 pixels
Display aspect ratio : 2.35:1
Frame rate : 29.970 fps
Color space : YUV
Chroma subsampling : 4:2:0
Bit depth : 8 bits
Scan type : Progressive
Compression mode : Lossy
Bits/(Pixel*Frame) : 0.231
Stream size : 1.25 GiB (92%)
Writing library : XviD 73
Audio #1
ID : 1
Format : AC-3
Format/Info : Audio Coding 3
Mode extension : CM (complete main)
Format settings, Endianness : Big
Codec ID : 2000
Duration : 1h 58mn
Bit rate mode : Constant
Bit rate : 128 Kbps
Channel(s) : 2 channels
Channel positions : Front: L R
Sampling rate : 48.0 KHz
Bit depth : 16 bits
Compression mode : Lossy
Stream size : 109 MiB (8%)
Alignment : Split accross interleaves
Interleave, duration : 33 ms (1.00 video frame)
Interleave, preload duration : 500 ms

Скриншоты



Последний раз редактировалось: Suxrob89 (2013-12-03 14:41), всего редактировалось 6 раз(а)

Создавать темы 29-Окт-2013 11:17

[Профиль]  [ЛС] 

Suxrob89 ®

Стаж: 7 лет 3 месяца

Сообщений: 933

Симпатии: 564

Торрент обновлён !!!
Посмотрел фильм, фильм супер и звук норм !!!
Всем хорошего просмотра !!!


Последний раз редактировалось: Suxrob89 (2013-12-03 14:43), всего редактировалось 2 раз(а)

Создавать темы 29-Окт-2013 11:20

[Профиль]  [ЛС] 

Quality

Стаж: 7 лет 4 месяца

Сообщений: 55

Симпатии: 3

с каких пор этот фильм новый?

Создавать темы 29-Окт-2013 12:20

[Профиль]  [ЛС] 

hamit

Стаж: 6 лет 7 месяцев

Сообщений: 202

Симпатии: 17

с каких пор этот фильм новый?
в смысле? он в конце 2013 года вышел и каким он должен быть?

Создавать темы 29-Окт-2013 12:22

[Профиль]  [ЛС] 

NexuS

Стаж: 5 лет 9 месяцев

Сообщений: 8

с каких пор этот фильм новый?
С Хрониками Риддика попутал чтоль?

Создавать темы 29-Окт-2013 12:40

[Профиль]  [ЛС] 

Xuri007

Стаж: 5 лет 5 месяцев

Сообщений: 106

за релиз респект, но этот фильм из тех фильмов которых только можно смотреть в качестве

Создавать темы 29-Окт-2013 14:03

[Профиль]  [ЛС] 

axeman

Стаж: 5 лет

Сообщений: 380

Симпатии: 50

Подождать что-ли...........более качественный............или качнуть

Создавать темы 29-Окт-2013 18:17

[Профиль]  [ЛС] 

Mansurbek84

Стаж: 7 лет

Сообщений: 80

Симпатии: 8

Видимо тут и картинка с TS mm

Создавать темы 29-Окт-2013 19:35

[Профиль]  [ЛС] 

Nijelmannn

Стаж: 5 лет 1 месяц

Сообщений: 151

Симпатии: 1

Подождать что-ли...........более качественный............или качнуть
Лучше подождать

Создавать темы 29-Окт-2013 19:35

[Профиль]  [ЛС] 

AkelA

Стаж: 5 лет 10 месяцев

Сообщений: 3

Ну так все ждемс?

Создавать темы 29-Окт-2013 20:28

[Профиль]  [ЛС] 

Azamat1339

Стаж: 4 года 4 месяца

Сообщений: 10

я буду ждать !!! (^_^)

Создавать темы 30-Окт-2013 18:32

[Профиль]  [ЛС] 

sonik3230

Стаж: 5 лет 8 месяцев

Сообщений: 4

Народ, скорости дайте чуток)

Создавать темы 11-Ноя-2013 17:58

[Профиль]  [ЛС] 

Топик был перенесен из форума CamRip\Telesync\SATRip\TVRip в форум Фильмы за 2013 (новинки)

Suxrob89

Создавать темы 30-Ноя-2013 22:48

 

Yuka

Стаж: 5 лет 2 месяца

Сообщений: 4

с каких пор этот фильм новый?
Мировая премьера фильма состоялась 5 сентября 2013 года, премьера в России — 12 сентября.

Создавать темы 30-Ноя-2013 23:05

[Профиль]  [ЛС] 

Lexx

Стаж: 4 года

Сообщений: 40

Симпатии: 6

Опередил на 5 минут, зачет :)

Создавать темы 30-Ноя-2013 23:40

[Профиль]  [ЛС] 
Показать сообщения:    
Тема закрыта

Текущее время: 20-Ноя 11:09

Часовой пояс: UTC + 5



Вы не можете начинать темы
Вы не можете отвечать на сообщения
Вы не можете редактировать свои сообщения
Вы не можете удалять свои сообщения
Вы не можете голосовать в опросах
Вы не можете прикреплять файлы к сообщениям
Вы не можете скачивать файлы