Граница пустоты: Сад грешников (фильм пятый) / Kara no Kyoukai: The Garden of Sinners [Movie] [без хардсаба] [RUS(ext)+JAP+SUB] [2008, триллер, мистика, ужасы] [DVDRip]

Ответить на тему
 

[email protected] ®

Стаж: 4 года 3 месяца

Сообщений: 336

Симпатии: 143

-Граница пустоты: Сад грешников (фильм пятый)
Kara no Kyoukai: The Garden of Sinners
- Страна: Япония
Год выпуска: 2008 г.
Жанр: триллер, мистика, ужасы
Продолжительность: 01:54:54
Режиссер: Хирао Такаюки
Автор оригинала: Насу Киноко
Студия:
-
Описание: Действие пятого фильма происходит всего через месяц после первого – в ноябре 1998 года. Когда Сики Рёги, как обычно прогуливаясь по столичным трущобам, спасла от верной смерти уличного парнишку Томоэ Эндзё, она и подумать не могла, что тем самым запускает цепь загадочных и пугающих событий. Послушав беспорядочные признания парня об убийстве собственных родителей, Сики сразу почувствовала холодный ветерок сверхъестественного, чью-то злую волю, играющую чужими судьбами.
В этом странном и захватывающем фильме в гости к Токо Аодзаки приходит прошлое в лице старых знакомых из Ассоциации магов. Во вселенной Type-Moon маги, вообще-то, не связаны людскими законами и моралью. Но в поисках силы и абсолютного знания бывшие друзья Токо зашли слишком далеко, безжалостно бросая людские жизни в топку своих амбиций. В итоге разгорается битва, где среди перепутанных зеркальных отражений прошлого и будущего, среди витков спирали парадокса трем друзьям из «Храма пустоты» предстоит доказать, что на чужих страданиях истинной силы не добудешь, а недооценивать Сики Рёги – очень большая ошибка!

© Hollow, World Art
-
Информационные ссылки: AniDB | World Art | ANN
-
Качество: DVDRip
Формат: MKV
Тип релиза: Без хардсаба
Озвучка: Алекс Килька (VO) | MCA (MVO)
-
Видео: 8 bit, x264, 720x480, ~1 650 kbps, 23.976 fps
Аудио JAP: AC3, 448 kbps, 6ch, 48 kHz
Аудио RUS 1: AAC, 135 kbps, 2ch, 48 kHz - MCA (внешним файлом)
Аудио RUS 2: AC3, 384 kbps, 6ch, 48 kHz - А. Килька (внешним файлом)
Субтитры Bнешние ; Язык субтитров: русский / английский
-

MediaInfo

General
Unique ID : 186216565667667051079823497514982552895 (0x8C180188F4B5EF2B8B292C5EAAAFB53F)
Complete name : F:\Video\Аниме\Kara no Kyoukai [BD] [720p] [HDHWP]\05\[Kuroi Raws] Kara no Kyoukai - The Garden of Sinners - 05 (DVD 720x480 H264 AC-3 5.1ch) [9D5F7625].mkv
Format : Matroska
Format version : Version 2
File size : 1.69 GiB
Duration : 1h 54mn
Overall bit rate : 2 100 Kbps
Encoded date : UTC 2009-09-14 15:07:57
Writing application : mkvmerge v2.9.7 ('Tenderness') built on Jul 1 2009 18:43:35
Writing library : libebml v0.7.7 + libmatroska v0.8.1
Video
ID : 1
Format : AVC
Format/Info : Advanced Video Codec
Format profile : [email protected]
Format settings, CABAC : Yes
Format settings, ReFrames : 12 frames
Codec ID : V_MPEG4/ISO/AVC
Duration : 1h 54mn
Bit rate : 1 650 Kbps
Width : 720 pixels
Height : 480 pixels
Display aspect ratio : 16:9
Original display aspect ratio : 3:2
Frame rate mode : Constant
Frame rate : 23.976 fps
Standard : NTSC
Color space : YUV
Chroma subsampling : 4:2:0
Bit depth : 8 bits
Scan type : Progressive
Bits/(Pixel*Frame) : 0.199
Stream size : 1.29 GiB (77%)
Writing library : x264 core 68 r1183M f21daff
Encoding settings : cabac=1 / ref=12 / deblock=1:-1:-1 / analyse=0x3:0x133 / me=umh / subme=9 / psy_rd=0.6:0.0 / mixed_ref=1 / me_range=32 / chroma_me=1 / trellis=2 / 8x8dct=1 / cqm=0 / deadzone=21,11 / chroma_qp_offset=-2 / threads=3 / nr=0 / decimate=1 / mbaff=0 / bframes=8 / b_pyramid=1 / b_adapt=2 / b_bias=0 / direct=3 / wpredb=1 / keyint=250 / keyint_min=25 / scenecut=40 / rc=2pass / bitrate=1650 / ratetol=1.0 / qcomp=0.60 / qpmin=10 / qpmax=28 / qpstep=4 / cplxblur=20.0 / qblur=0.5 / ip_ratio=1.40 / pb_ratio=1.30 / aq=1:1.00
Language : Japanese
Default : Yes
Forced : No
Audio
ID : 2
Format : AC-3
Format/Info : Audio Coding 3
Mode extension : CM (complete main)
Format settings, Endianness : Big
Codec ID : A_AC3
Duration : 1h 54mn
Bit rate mode : Constant
Bit rate : 448 Kbps
Channel count : 6 channels
Channel positions : Front: L C R, Side: L R, LFE
Sampling rate : 48.0 KHz
Bit depth : 16 bits
Compression mode : Lossy
Stream size : 368 MiB (21%)
Language : Japanese
Default : Yes
Forced : No

Скриншоты





Источник

rutracker.org


Последний раз редактировалось: [email protected] (2015-04-24 21:27), всего редактировалось 2 раз(а)

Создавать темы 29-Окт-2013 22:47

[Профиль]  [ЛС] 

[email protected] ®

Стаж: 4 года 3 месяца

Сообщений: 336

Симпатии: 143

Как и обещал "облегченная" версия

Создавать темы 29-Окт-2013 22:55

[Профиль]  [ЛС] 
Показать сообщения:    
Ответить на тему

Текущее время: 23-Окт 12:53

Часовой пояс: UTC + 5



Вы не можете начинать темы
Вы не можете отвечать на сообщения
Вы не можете редактировать свои сообщения
Вы не можете удалять свои сообщения
Вы не можете голосовать в опросах
Вы не можете прикреплять файлы к сообщениям
Вы не можете скачивать файлы