Философы: Урок выживания / The Philosophers (Джон Хаддлс / John Huddles) [2013, США, Индонезия, фантастика, триллер, HDTVRip][Чистый звук]

Страницы :  1, 2  След.

Тема закрыта
 

Suxrob89 ®

Стаж: 7 лет 1 месяц

Сообщений: 933

Симпатии: 564

-Философы: Урок выживания / The Philosophers- Страна: США, Индонезия
Жанр: фантастика, триллер
Год выпуска: 2013
Продолжительность: 01:36:59
Перевод: Профессиональный (дублированный) [Чистый звук]
Cубтитры: нет-Режиссер: Джон Хаддлс-В ролях: Софи Лоу, Джеймс Д’Арси, Риз Уэйкфилд, Дэрил Сабара, Бонни Райт, Кэти Финдлей, Фредди Строма, Хоуп Олэйд Уилсон, Абхи Синха, Джейкоб Артист-Описание: В международной школе в Джакарте таинственный учитель философии в качестве выпускного экзамена предлагает 20 студентам провести эксперимент. Этот опыт будет самым экстремальным, с которым они когда-либо сталкивались.
Используя только силу логики, студенты должны выбрать, кто из них будет достоин получить место в подземном бункере — единственном месте, где можно спастись от приближающейся ядерной катастрофы. Бункер рассчитан на десять человек, а значит, тех, кого не выбирают, ожидает жестокая смерть. Реальность классной комнаты эффектно перетекает в воображаемый, но в то же время пугающий мир надвигающегося апокалипсиса…- -Качество видео: HDTVRip
Формат видео: AVI
Видео: XviD , 720x304 (2.37:1) , 25.000 fps , 1628 kbps , 0.30 bit/pixel
Аудио: AC3, 384 Kb/s , 6 channels, 48.0 KHz

Mediainfo

E:\Filosofy.urok.vyzivanija.2013.D.HDTVRip.avi
General
Complete name : E:\Filosofy.urok.vyzivanija.2013.D.HDTVRip.avi
Format : AVI
Format/Info : Audio Video Interleave
File size : 1.37 GiB
Duration : 1h 36mn
Overall bit rate : 2 022 Kbps
Writing application : VirtualDubMod 1.5.10.3 | www.virtualdub-fr.org || (build 2550/release)
Writing library : VirtualDubMod build 2550/release
Video #0
ID : 0
Format : MPEG-4 Visual
Format profile : Advanced [email protected]
Format settings, BVOP : 2
Format settings, QPel : No
Format settings, GMC : No warppoints
Format settings, Matrix : Default (MPEG)
Codec ID : XVID
Codec ID/Hint : XviD
Duration : 1h 36mn
Bit rate : 1 628 Kbps
Width : 720 pixels
Height : 304 pixels
Display aspect ratio : 2.35:1
Frame rate : 25.000 fps
Color space : YUV
Chroma subsampling : 4:2:0
Bit depth : 8 bits
Scan type : Progressive
Compression mode : Lossy
Bits/(Pixel*Frame) : 0.297
Stream size : 1.10 GiB (81%)
Writing library : XviD 1.2.1 (UTC 2008-12-04)
Audio #1
ID : 1
Format : AC-3
Format/Info : Audio Coding 3
Mode extension : CM (complete main)
Format settings, Endianness : Big
Codec ID : 2000
Duration : 1h 36mn
Bit rate mode : Constant
Bit rate : 384 Kbps
Channel(s) : 6 channels
Channel positions : Front: L C R, Side: L R, LFE
Sampling rate : 48.0 KHz
Bit depth : 16 bits
Compression mode : Lossy
Stream size : 266 MiB (19%)
Alignment : Split accross interleaves
Interleave, duration : 40 ms (1.00 video frame)
Interleave, preload duration : 500 ms

Скриншоты

Создавать темы 30-Окт-2013 06:08

[Профиль]  [ЛС] 

Azamat1339

Стаж: 4 года 2 месяца

Сообщений: 10

кууллл

Создавать темы 30-Окт-2013 13:38

[Профиль]  [ЛС] 

vincent47

Стаж: 6 лет 7 месяцев

Сообщений: 89

Симпатии: 19

Всем советую посмотреть, смотрел трейлер, очень заинтересовало, не знаю какое тут качество в данной раздаче, однако качать по любому буду. Спасибо автору за раздачу

Создавать темы 30-Окт-2013 14:51

[Профиль]  [ЛС] 

Xuri007

Стаж: 5 лет 3 месяца

Сообщений: 106

ну как люди?

Создавать темы 30-Окт-2013 18:34

[Профиль]  [ЛС] 

Wolfling

Стаж: 4 года 7 месяцев

Сообщений: 48

Симпатии: 3

Поначалу понравилось, потом бред - то один, то противоположный, в конце ваще сопли какие-то. Так как название фильма взывает к философии, поневоле включил свою и в результате с втуляемой режиссёрами точкой зрения категорически не сошёлся. Второй раз смотреть не буду :-)

Создавать темы 30-Окт-2013 22:31

[Профиль]  [ЛС] 

4yBak

Стаж: 5 лет 4 месяца

Сообщений: 23

Фильм полный бред! Не философы, а озабоченные придурки!

Создавать темы 02-Ноя-2013 20:55

[Профиль]  [ЛС] 

Ahat

Стаж: 3 года 11 месяцев

Сообщений: 27

Фильм полный бред! Не философы, а озабоченные придурки!
Тока хотел качнуть..... типерь передумал, спс за коменты pc

Создавать темы 02-Ноя-2013 23:34

[Профиль]  [ЛС] 

rims

Стаж: 4 года 6 месяцев

Сообщений: 5

Симпатии: 1

Согласен, полный бред, ни капли реальности

Создавать темы 03-Ноя-2013 09:53

[Профиль]  [ЛС] 

mod

Стаж: 8 лет 8 месяцев

Сообщений: 34

Симпатии: 8

фильм хлам

Создавать темы 03-Ноя-2013 13:30

[Профиль]  [ЛС] 

Baxtiyar911

Стаж: 4 года 8 месяцев

Сообщений: 20

тупейший фильм не советую

Создавать темы 05-Ноя-2013 14:55

[Профиль]  [ЛС] 

NIAGARA

Стаж: 6 лет 10 месяцев

Сообщений: 6

ну вообще то там и говориться, что ни в реальном мире, это философия, то есть наука. tu

Создавать темы 05-Ноя-2013 20:54

[Профиль]  [ЛС] 

Imperiya

Стаж: 6 лет 5 месяцев

Сообщений: 275

Симпатии: 4

Вот тот кто не видел Трейлер русский язык http://mover.uz/channel/imperiya/

Создавать темы 15-Ноя-2013 22:53

[Профиль]  [ЛС] 

storm

Стаж: 5 лет 6 месяцев

Сообщений: 8

примечания по концовке http://tas-ix.net/viewtopic.php?p=710299#710299

Создавать темы 16-Ноя-2013 08:45

[Профиль]  [ЛС] 

LiX

Стаж: 6 лет 4 месяца

Сообщений: 254

Симпатии: 6

Интересный, неординарный и очень даже оригинальный фильм! У каждого своё мнение и если кто не понял смысл этих экспериментов - то просто почитайте примечания!
P.S. Я сильно ржал в 2х случаях когда поэт получил хэдшот не успев договорить))

Создавать темы 16-Ноя-2013 23:57

[Профиль]  [ЛС] 

axxa

Стаж: 6 лет 10 месяцев

Сообщений: 63

Симпатии: 2

Фильм полнейший бред!Ничем не обоснованные страхи, не понятная философия учащихся да и сам препод псих ещё тот!

Создавать темы 17-Ноя-2013 07:22

[Профиль]  [ЛС] 
Показать сообщения:    
Тема закрыта

Текущее время: 25-Сен 11:04

Часовой пояс: UTC + 5



Вы не можете начинать темы
Вы не можете отвечать на сообщения
Вы не можете редактировать свои сообщения
Вы не можете удалять свои сообщения
Вы не можете голосовать в опросах
Вы не можете прикреплять файлы к сообщениям
Вы не можете скачивать файлы