Тюремный блок К-11 / K-11 (Джулс Мэнн-Стюарт) [2012 г., драма, BDRip]

Ответить на тему
 

Suxrob89 ®

Стаж: 7 лет 1 месяц

Сообщений: 933

Симпатии: 564

-Тюремный блок К-11 / K-11- Год выпуска: 2012
Страна: США
Жанр: драма
Продолжительность: 01:28:06
Перевод: Любительское (одноголосое) [den904] - перевод на русский язык [Северный] - работа со звуком [КОЛОБОК]-Режиссер: Джулс Мэнн-Стюарт-В ролях: Горан Вишнич, Кейт дель Кастильо, Д.Б. Суини, Портия Даблдэй, Джейсон Мьюз, Соня Эдди, Луис Монкада, Крэйг Оуэнс, Тиффани Малхерон, П.Дж. Бирн-Описание: Известный музыкальный продюсер Реймонд Сакс очнулся от алкогольно-наркотического угара в тюрьме Лос-Анджелеса в блоке K-11, куда сажают только гомосексуалистов, транссексуалов и ВИЧ-положительных заключенных. С этого момента он погрузился в страшный мир, которым правит транссексуал Моузи. Проблем прибавляют траннссексуал Баттрефлай и надзиратель гей лейтенант Джонсон. Борьба Рэя, за связь с внешним миром и возвращение свободы, кажется невозможной, но он должен научиться управлять этой новой структурой власти, если он хочет выжить и взять контроль над своей жизнью.-Качество: BDRip [MiLLENiUM]
Формат: AVI
Видео кодек: XviD
Аудио кодек: AC3
Видео: 1599 kb/s, 720x384, 23.976 fps
Аудио: Russian: AC3, 192 (2 ch), 48.0 KHz / English: AC3, 384 kb/s (6 ch), 48.0 KHz

Media info

E:\K.11.2012.BDRip.CINEMANIA.avi
General
Complete name : E:\K.11.2012.BDRip.CINEMANIA.avi
Format : AVI
Format/Info : Audio Video Interleave
File size : 1.35 GiB
Duration : 1h 28mn
Overall bit rate : 2 189 Kbps
Writing application : VirtualDubMod 1.5.10.2 (build 2542/release)
Writing library : VirtualDubMod build 2542/release
Video #0
ID : 0
Format : MPEG-4 Visual
Format profile : Advanced [email protected]
Format settings, BVOP : 2
Format settings, QPel : No
Format settings, GMC : No warppoints
Format settings, Matrix : Default (H.263)
Codec ID : XVID
Codec ID/Hint : XviD
Duration : 1h 28mn
Bit rate : 1 599 Kbps
Width : 720 pixels
Height : 384 pixels
Display aspect ratio : 1.85:1
Frame rate : 23.976 fps
Color space : YUV
Chroma subsampling : 4:2:0
Bit depth : 8 bits
Scan type : Progressive
Compression mode : Lossy
Bits/(Pixel*Frame) : 0.241
Stream size : 1 008 MiB (73%)
Writing library : XviD 1.2.1 (UTC 2008-12-04)
Audio #1
ID : 1
Format : AC-3
Format/Info : Audio Coding 3
Mode extension : CM (complete main)
Format settings, Endianness : Big
Codec ID : 2000
Duration : 1h 28mn
Bit rate mode : Constant
Bit rate : 192 Kbps
Channel(s) : 2 channels
Channel positions : Front: L R
Sampling rate : 48.0 KHz
Bit depth : 16 bits
Compression mode : Lossy
Stream size : 121 MiB (9%)
Alignment : Split accross interleaves
Interleave, duration : 42 ms (1.00 video frame)
Interleave, preload duration : 500 ms
Audio #2
ID : 2
Format : AC-3
Format/Info : Audio Coding 3
Mode extension : CM (complete main)
Format settings, Endianness : Big
Codec ID : 2000
Duration : 1h 28mn
Bit rate mode : Constant
Bit rate : 384 Kbps
Channel(s) : 6 channels
Channel positions : Front: L C R, Side: L R, LFE
Sampling rate : 48.0 KHz
Bit depth : 16 bits
Compression mode : Lossy
Stream size : 242 MiB (18%)
Alignment : Split accross interleaves
Interleave, duration : 42 ms (1.00 video frame)
Interleave, preload duration : 500 ms

Скриншоты

Создавать темы 30-Окт-2013 06:27

[Профиль]  [ЛС] 

Топик был перенесен из форума Фильмы за 2013 (новинки) в форум Фильмы за 2012

victor0778

Создавать темы 30-Окт-2013 07:11

 
Показать сообщения:    
Ответить на тему

Текущее время: 21-Сен 03:00

Часовой пояс: UTC + 5



Вы не можете начинать темы
Вы не можете отвечать на сообщения
Вы не можете редактировать свои сообщения
Вы не можете удалять свои сообщения
Вы не можете голосовать в опросах
Вы не можете прикреплять файлы к сообщениям
Вы не можете скачивать файлы