Тайное влечение / Adore (Анн Фонтен) [2013 г., Драма, HDRip]

Ответить на тему
 

Suxrob89 ®

Стаж: 7 лет 4 месяца

Сообщений: 933

Симпатии: 564

-Тайное влечение / Adore- Год выпуска: 2013
Страна: Австралия, Франция, Canal+ [fr], Ciné@, Ciné
Жанр: Драма
Продолжительность: 01:51:15
Перевод: Любительский (одноголосый) (lord666)-Режиссер: Анн Фонтен-В ролях: Робин Райт, Наоми Уоттс, Ксавьер Сэмюэл, Бен Мендельсон, Софи Лоу, Джеймс Фрешвилл, Джессика Тоуви, Гари Свит, Элисон Стэнден, Дэйн Иде-Описание: Главные героини фильма — Лил и Роз — две давние подруги, которые влюбляются в сыновей друг друга. Из-за страха быть осуждёнными обществом, женщины скрывают свои отношения в тайне на протяжении нескольких лет до тех пор, пока их секреты не становятся достоянием общественности. Это открытие не только грозит разрушить жизни обеих подруг, но и ставит перед сложным выбором их сыновей, которые должны решить: жить ли им по проторенной дороге или же следовать своим истинным желаниям.- -Качество: HDRip
Формат: AVI
Видео кодек: XviD
Аудио кодек: AC3
Видео: XviD, 1487 Кбит/с, 720x304, 24,000 кадра/сек
Аудио: AC3, 6 ch, 384 Кбит/с, 48,0 КГц

Media info

Общее
Полное имя : E:\Разное\Tajnoe.vle4enie.2013.HDRip.1.46Gb.avi
Формат : AVI
Формат/Информация : Audio Video Interleave
Размер файла : 1,46 Гбайт
Продолжительность : 1 ч. 51 м.
Общий поток : 1880 Кбит/сек
Программа кодирования : VirtualDubMod 1.5.10.2 (build 2540/release)
Библиотека кодирования : VirtualDubMod build 2540/release
Видео
Идентификатор : 0
Формат : MPEG-4 Visual
Профиль формата : Advanced [email protected]
Параметр BVOP формата : 2
Параметр QPel формата : Нет
Параметр GMC формата : Без точки перехода
Параметр матрицы формата : Default (MPEG)
Идентификатор кодека : XVID
Идентификатор кодека/Подсказка : XviD
Продолжительность : 1 ч. 51 м.
Битрейт : 1487 Кбит/сек
Ширина : 720 пикселей
Высота : 304 пикселя
Соотношение сторон : 2,35:1
Частота кадров : 24,000 кадра/сек
Цветовое пространство : YUV
Субдискретизация насыщенности : 4:2:0
Битовая глубина : 8 бит
Тип развёртки : Прогрессивная
Метод сжатия : С потерями
Бит/(Пиксели*Кадры) : 0.283
Размер потока : 1,16 Гбайт (79%)
Библиотека кодирования : XviD 1.2.1 (UTC 2008-12-04)
Аудио
Идентификатор : 1
Формат : AC-3
Формат/Информация : Audio Coding 3
Расширение режима : CM (complete main)
Параметр Endianness формата : Big
Идентификатор кодека : 2000
Продолжительность : 1 ч. 51 м.
Вид битрейта : Постоянный
Битрейт : 384 Кбит/сек
Каналы : 6 каналов
Расположение каналов : Front: L C R, Side: L R, LFE
Частота : 48,0 КГц
Битовая глубина : 16 бит
Метод сжатия : С потерями
Размер потока : 306 Мбайт (20%)
Выравнивание : Разделение по промежуткам
Продолжительность промежутка : 42 мс. (1,00 видеокадр)
Время предзагрузки промежутка : 500 мс.

Скриншоты

Создавать темы 31-Окт-2013 10:13

[Профиль]  [ЛС] 

murodjon

Стаж: 6 лет 10 месяцев

Сообщений: 163

Симпатии: 10

Спасибо качаем

Создавать темы 31-Окт-2013 10:51

[Профиль]  [ЛС] 

Ramilzver

Стаж: 7 лет 4 месяца

Сообщений: 115

Симпатии: 4

Аудио: AC3, 6 ch, 384 Кбит/с, 48,0 КГц
Зачем такой качественный звук, если перевод Любительский (одноголосый) (lord666)? Помоему Аудио: MP3, 2 ch, 128 kb/s, 48 KHz тоже пойдёт, так только размер файла уменьшится.

Создавать темы 31-Окт-2013 11:55

[Профиль]  [ЛС] 

Иви

Стаж: 5 лет 11 месяцев

Сообщений: 688

Симпатии: 65

Аудио: AC3, 6 ch, 384 Кбит/с, 48,0 КГц
Зачем такой качественный звук, если перевод Любительский (одноголосый) (lord666)? Помоему Аудио: MP3, 2 ch, 128 kb/s, 48 KHz тоже пойдёт, так только размер файла уменьшится.
это разве плохо?
может перевод действительно качественный и стоит такого звука

Создавать темы 31-Окт-2013 13:01

[Профиль]  [ЛС] 

SNation

Стаж: 4 года 8 месяцев

Сообщений: 81

Симпатии: 70

Видел трейлер, фильм вроде бы смотрибельный!)

Создавать темы 31-Окт-2013 16:44

[Профиль]  [ЛС] 

IQBOT

Стаж: 6 лет 10 месяцев

Сообщений: 449

Симпатии: 81

Типичный фильм Анн Фонтен. Сексуальное сумасшествие — типичная симптоматика фильмов Анн Фонтен.

Создавать темы 04-Ноя-2013 06:14

[Профиль]  [ЛС] 

uzabcd

Стаж: 7 лет 4 месяца

Сообщений: 26

Симпатии: 2

я конечно понимаю,
на вкус и цвет говорится, но само описание вас не смущает?

Создавать темы 04-Ноя-2013 16:27

[Профиль]  [ЛС] 

skynet

Стаж: 5 лет 10 месяцев

Сообщений: 296

Симпатии: 6

Это просто извращение ёпт! Эта почти как Инцест(( Как можно снять таких фильмов?

Создавать темы 04-Ноя-2013 21:56

[Профиль]  [ЛС] 

Tolik4523

Стаж: 5 лет 11 месяцев

Сообщений: 271

Симпатии: 27

Это просто извращение ёпт! Эта почти как Инцест(( Как можно снять таких фильмов?
В мире столько ужасных и отвратительных проявлений людской сущности в том числе воплощённые в кинематографе, что данный фильм просто Уолт Дисней

Создавать темы 05-Ноя-2013 14:41

[Профиль]  [ЛС] 
Показать сообщения:    
Ответить на тему

Текущее время: 16-Дек 10:16

Часовой пояс: UTC + 5



Вы не можете начинать темы
Вы не можете отвечать на сообщения
Вы не можете редактировать свои сообщения
Вы не можете удалять свои сообщения
Вы не можете голосовать в опросах
Вы не можете прикреплять файлы к сообщениям
Вы не можете скачивать файлы